Dietland Season 1 2018 E9 E10 720p Esub HD Hindi English Tamil GOPISAH - GOPISAHI

Thursday, 2 August 2018

Dietland Season 1 2018 E9 E10 720p Esub HD Hindi English Tamil GOPISAH


Format                         : Matroska
Format version                 : Version 4 / Version 2
File size                      : 295 MiB
Duration                       : 46 min 23 s
Overall bit rate               : 890 kb/s

Video
Format                         : AVC
Format/Info                    : Advanced Video Codec
Codec ID                       : V_MPEG4/ISO/AVC
Duration                       : 46 min 23 s
Bit rate                       : 599 kb/s
Width                          : 1 280 pixels
Height                         : 720 pixels
Display aspect ratio           : 16:9
Frame rate mode                : Constant
Frame rate                     : 23.976 (24000/1001) FPS
Color space                    : YUV
Chroma subsampling             : 4:2:0
Bit depth                      : 8 bits
Scan type                      : Progressive
Bits/(Pixel*Frame)             : 0.027
Stream size                    : 199 MiB (67%)
Title                          : GOPISAHI
Writing library                : x264 core 155 r2901 7d0ff22

Audio #1
Format                         : AAC
Format/Info                    : Advanced Audio Codec
Duration                       : 46 min 23 s
Bit rate                       : 96.0 kb/s
Channel(s)                     : 2 channels
Channel positions              : Front: L R
Sampling rate                  : 48.0 kHz
Frame rate                     : 46.875 FPS (1024 SPF)
Compression mode               : Lossy
Delay relative to video        : -44 ms
Stream size                    : 31.8 MiB (11%)
Title                          : GOPISAHI
Language                       : Tamil

Audio #2
Format                         : AAC
Format/Info                    : Advanced Audio Codec
Duration                       : 46 min 23 s
Bit rate                       : 96.0 kb/s
Channel(s)                     : 2 channels
Channel positions              : Front: L R
Sampling rate                  : 48.0 kHz
Frame rate                     : 46.875 FPS (1024 SPF)
Compression mode               : Lossy
Delay relative to video        : -44 ms
Stream size                    : 31.7 MiB (11%)
Title                          : GOPISAHI
Language                       : Hindi

Audio #3
Format                         : AAC
Duration                       : 46 min 23 s
Bit rate                       : 96.0 kb/s
Channel(s)                     : 2 channels
Channel positions              : Front: L R
Sampling rate                  : 48.0 kHz
Frame rate                     : 46.875 FPS (1024 SPF)
Compression mode               : Lossy
Stream size                    : 31.9 MiB (11%)
Title                          : GOPISAHI
Language                       : English

Text
Language                       : English




TORRENT

MAGNET

https://linkshub.me/view/SZgSAhsPDX

https://linkshub.me/view/MmAMp7nmcK

https://linkshub.me/view/xMO8Z2eaN1

https://linkshub.me/view/cKOEnZN2AK

 https://linkshub.me/view/SF6cKCQ0BQ

https://linkshub.me/view/G69GSLm0e4

https://linkshub.me/view/TZd9d16yN7

https://linkshub.me/view/NOhpj8hFxm

https://linkshub.me/view/2Y7cb6hZqr

https://linkshub.me/view/sFOPLMHXgX

https://linkshub.me/view/X1z8cE1GmS

https://linkshub.me/view/ZYGB8cmtDz

https://linkshub.me/view/rt8O5ALgBQ

https://linkshub.me/view/06q5m07dpW

 Dietland
(2018) on IMDb


 EP 9




EP10

1 comment:

  1. thanks for your all posts
    can u upload The Young Pope (2016) TV Series in hindi

    ReplyDelete