Dj Duvvada Jagannadham 2017 x264 720p HD Esub Dual Audio Hindi Telugu GOPISAHI - GOPISAHI

Thursday, 9 August 2018

Dj Duvvada Jagannadham 2017 x264 720p HD Esub Dual Audio Hindi Telugu GOPISAHI


Format                         : Matroska
Format version                 : Version 4 / Version 2
File size                      : 804 MiB
Duration                       : 2 h 23 min
Overall bit rate               : 786 kb/s
Movie name                     : Dj Duvvada Jagannadham 2017 GOPISAHI

Video
ID                             : 1
Format                         : AVC
Format/Info                    : Advanced Video Codec
Codec ID                       : V_MPEG4/ISO/AVC
Duration                       : 2 h 23 min
Bit rate                       : 599 kb/s
Width                          : 1 280 pixels
Height                         : 544 pixels
Display aspect ratio           : 2.35:1
Frame rate mode                : Constant
Frame rate                     : 25.000 FPS
Color space                    : YUV
Chroma subsampling             : 4:2:0
Bit depth                      : 8 bits
Scan type                      : Progressive
Bits/(Pixel*Frame)             : 0.034
Stream size                    : 613 MiB (76%)
Title                          : GOPISAHI
Writing library                : x264 core 155 r2901 7d0ff22

Audio #1
Format                         : AAC
Format/Info                    : Advanced Audio Codec
Duration                       : 2 h 23 min
Bit rate                       : 96.0 kb/s
Channel(s)                     : 2 channels
Channel positions              : Front: L R
Sampling rate                  : 48.0 kHz
Frame rate                     : 46.875 FPS (1024 SPF)
Compression mode               : Lossy
Delay relative to video        : -124 ms
Stream size                    : 98.2 MiB (12%)
Title                          : GOPISAHI
Language                       : Hindi

Audio #2
Format                         : AAC
Duration                       : 2 h 23 min
Bit rate                       : 87.7 kb/s
Channel(s)                     : 6 channels
Channel positions              : Front: L C R, Side: L R, LFE
Sampling rate                  : 44.1 kHz
Frame rate                     : 43.066 FPS (1024 SPF)
Compression mode               : Lossy
Delay relative to video        : -124 ms
Stream size                    : 89.7 MiB (11%)
Title                          : GOPISAHI
Language                       : Telugu

Text
Language                       : English


TORRENT

MAGNET

https://linkshub.me/view/G0gPrSKgL4

 Duvvada Jagannadham
(2017) on IMDb


No comments:

Post a Comment