Harry Potter And The Prisoner Of Azkaban 2004 x264 720p Esub BluRay Dual Audio English Hindi GOPISAHI

Format                         : Matroska
Format version                 : Version 4 / Version 2
File size                      : 805 MiB
Duration                       : 2 h 21 min
Overall bit rate               : 794 kb/s
Movie name                     : Harry Potter And The Prisoner Of Azkaban 2004 GOPISAHI

Video
Format                         : AVC
Format/Info                    : Advanced Video Codec
Codec ID                       : V_MPEG4/ISO/AVC
Duration                       : 2 h 21 min
Bit rate                       : 599 kb/s
Width                          : 1 280 pixels
Height                         : 544 pixels
Display aspect ratio           : 2.35:1
Frame rate mode                : Constant
Frame rate                     : 23.976 (24000/1001) FPS
Color space                    : YUV
Chroma subsampling             : 4:2:0
Bit depth                      : 8 bits
Scan type                      : Progressive
Bits/(Pixel*Frame)             : 0.036
Stream size                    : 607 MiB (75%)
Title                          : GOPISAHI
Writing library                : x264 core 155 r2901 7d0ff22

Audio #1
Format                         : AAC
Format/Info                    : Advanced Audio Codec
Duration                       : 2 h 21 min
Bit rate                       : 96.0 kb/s
Channel(s)                     : 2 channels
Channel positions              : Front: L R
Sampling rate                  : 48.0 kHz
Frame rate                     : 46.875 FPS (1024 SPF)
Compression mode               : Lossy
Delay relative to video        : -26 ms
Stream size                    : 97.4 MiB (12%)
Title                          : GOPISAHI
Language                       : Hindi

Audio #2
Format                         : AAC
Duration                       : 2 h 21 min
Bit rate                       : 96.0 kb/s
Channel(s)                     : 2 channels
Channel positions              : Front: L R
Sampling rate                  : 48.0 kHz
Frame rate                     : 46.875 FPS (1024 SPF)
Compression mode               : Lossy
Delay relative to video        : -26 ms
Stream size                    : 97.4 MiB (12%)
Title                          : GOPISAHI
Language                       : English

Text
Language                       : English



TORRENT

MAGNET

http://www.mediafire.com/file/91nuyi0ycs35b93/H_Pr_A_T_P_f_A_2004.zip/file

https://uploadfiles.pw/b7becc6829f6a38c

http://www.indishare.me/7fxg8dxotgdl

https://www.oboom.com/V08RMLCQ

https://megaup.net/5dnv/Harry_Potter_And_The_Prisoner_Of_Azkaban_2004_x264_720p_Esub_BluRay_Dual_Audio_English_Hindi_GOPISAHI.mkv

https://uptobox.com/27xj2qgbb8y9

https://uptostream.com/27xj2qgbb8y9

https://bdupload.info/txppsricsnf3

https://openload.co/f/CFlve6DxKI0/Harry_Potter_And_The_Prisoner_Of_Azkaban_2004_x264_720p_Esub_BluRay_Dual_Audio_English_Hindi_GOPISAHI.mkv.mp4

https://vidlox.me/idydj4dxh5zq

https://vidoza.net/k6lpnamdyy0w.html

http://www.filefactory.com/file/pxcugxzmjgf/

400 MB HINDI

 Harry Potter and the Prisoner of Azkaban
(2004) on IMDb


Post a Comment

0 Comments