Olympus Has Fallen 2013 x264 720p Esub BluRay Dual Audio English Hindi GOPISAHI


Format                         : Matroska
Format version                 : Version 4 / Version 2
File size                      : 943 MiB
Duration                       : 1 h 59 min
Overall bit rate               : 1 107 kb/s
Movie name                     : Olympus Has Fallen 2013 GOPISAHI

Video
Format                         : AVC
Format/Info                    : Advanced Video Codec
Format profile                 : [email protected]
Duration                       : 1 h 59 min
Bit rate                       : 918 kb/s
Width                          : 1 280 pixels
Height                         : 538 pixels
Display aspect ratio           : 2.40:1
Frame rate mode                : Constant
Frame rate                     : 24.000 FPS
Color space                    : YUV
Chroma subsampling             : 4:2:0
Bit depth                      : 8 bits
Scan type                      : Progressive
Bits/(Pixel*Frame)             : 0.056
Stream size                    : 783 MiB (83%)
Title                          : GOPISAHI
Writing library                : x264 core 132 r2 76a5c3a

Audio #1
Format                         : AAC
Format/Info                    : Advanced Audio Codec
Duration                       : 1 h 50 min
Bit rate                       : 96.0 kb/s
Channel(s)                     : 2 channels
Channel positions              : Front: L R
Sampling rate                  : 48.0 kHz
Frame rate                     : 46.875 FPS (1024 SPF)
Compression mode               : Lossy
Delay relative to video        : -50 ms
Stream size                    : 75.9 MiB (8%)
Title                          : GOPISAHI
Language                       : Hindi

Audio #2
Format                         : AAC
Format/Info                    : Advanced Audio Codec
Duration                       : 1 h 59 min
Bit rate                       : 96.0 kb/s
Channel(s)                     : 2 channels
Channel positions              : Front: L R
Sampling rate                  : 48.0 kHz
Frame rate                     : 46.875 FPS (1024 SPF)
Compression mode               : Lossy
Delay relative to video        : -83 ms
Stream size                    : 82.1 MiB (9%)
Title                          : GOPISAHI
Language                       : English

Text
Language                       : English




TORRENT

MAGNET

http://1upload.pw/Download.php?url=Q0xXL21tVGFEVHBlK1JGQVVOY1phZGM1Z2RxNW9kQ0Irb3VOVmtRdTVyNTdmcjZmODBCc1lYeVhPWWVIdGZIVA==

https://linksclub.biz/drive/download.php?id=dc97663df895d445b4c7

https://linkstaker.bid/drive/download.php?id=53e3336070733ca9701b


https://bdupload.info/p8ja8zmlo93c

https://uptobox.com/6fz48rmvfh5l

http://www.indishare.me/8q8fcw7po7qx

https://www.oboom.com/4F2GJPHM

https://megaup.net/5caq/Olympus_Has_Fallen_2013_x264_720p_Esub_BluRay_Dual_Audio_English_Hindi_GOPISAHI.mkv

https://openload.co/f/SRWBxENcmFg/Olympus%2520Has%2520Fallen%25202013%2520x264%2520720p%2520Esub%2520BluRay%2520Dual%2520Audio%2520English%2520Hindi%2520GOPISAHI.mkv.mp4

https://vidlox.me/70ooixoxx0y4

http://www.filefactory.com/file/3ulttcqte8b9/

https://vidoza.net/sa0llzmqgdqi.html

https://uploadfiles.pw/60631d260c6f3c89

 Olympus Has Fallen
(2013) on IMDb

Post a Comment

0 Comments