Piranha 3DD 2012 x264 720p Esub BluRay Dual Audio English Hindi GOPISAHI


Format                         : Matroska
Format version                 : Version 4 / Version 2
File size                      : 726 MiB
Duration                       : 1 h 22 min
Overall bit rate               : 1 227 kb/s
Movie name                     : Piranha 3DD 2012 GOPISAHI

Video
Format                         : AVC
Format/Info                    : Advanced Video Codec
Codec ID                       : V_MPEG4/ISO/AVC
Duration                       : 1 h 22 min
Bit rate                       : 1 004 kb/s
Width                          : 1 280 pixels
Height                         : 720 pixels
Display aspect ratio           : 16:9
Frame rate mode                : Constant
Frame rate                     : 23.976 (24000/1001) FPS
Color space                    : YUV
Chroma subsampling             : 4:2:0
Bit depth                      : 8 bits
Scan type                      : Progressive
Bits/(Pixel*Frame)             : 0.045
Stream size                    : 594 MiB (82%)
Title                          : GOPISAHI
Writing library                : x264 core 125 r2200 999b753

Audio #1
Format                         : AAC
Format/Info                    : Advanced Audio Codec
Duration                       : 1 h 22 min
Bit rate                       : 125 kb/s
Channel(s)                     : 2 channels
Channel positions              : Front: L R
Sampling rate                  : 48.0 kHz
Frame rate                     : 46.875 FPS (1024 SPF)
Compression mode               : Lossy
Delay relative to video        : 10 s 21 ms
Stream size                    : 73.8 MiB (10%)
Title                          : GOPISAHI
Language                       : Hindi

Audio #2
Format                         : AAC
Format/Info                    : Advanced Audio Codec
Duration                       : 1 h 22 min
Bit rate                       : 96.0 kb/s
Channel(s)                     : 2 channels
Channel positions              : Front: L R
Sampling rate                  : 48.0 kHz
Frame rate                     : 46.875 FPS (1024 SPF)
Compression mode               : Lossy
Stream size                    : 56.8 MiB (8%)
Title                          : GOPISAHI
Language                       : English

Text
Language                       : English



TORRENT

MAGNET

http://www.indishare.me/4oil6isi0qg6

https://www.oboom.com/F86MYZ7S

http://www.filefactory.com/file/2wya60309pyv/

https://megaup.net/9q2a/Piranha_3DD_2012_x264_720p_Esub_BluRay_Dual_Audio_English_Hindi_GOPISAHI.mkv

https://bdupload.info/uqi27lt1ztrq

https://uploadfiles.pw/61e2eb3d2b7e0a91

http://www.mediafire.com/file/5qkntt925vcjhaz/P_3DD_2012_.zip/file

https://uptobox.com/xbkffetf0f4k

https://uptostream.com/xbkffetf0f4k

https://vidoza.net/bi9v61maatnx.html

https://vidlox.me/0vth08c4ly24

https://openload.co/f/e_mwWv3kVA4/Piranha_3DD_2012_x264_720p_Esub_BluRay_Dual_Audio_English_Hindi_GOPISAHI.mkv.mp4


 Piranha 3DD
(2012) on IMDb


Post a Comment

0 Comments