Search

Rangreza 2017 x264 720p HD Hindi GOPISAHI


Format                         : Matroska
Format version                 : Version 4 / Version 2
File size                      : 539 MiB
Duration                       : 2 h 6 min
Overall bit rate               : 597 kb/s
Movie name                     : Rangreza 2017 GOPISAHI

Video
Format                         : AVC
Format/Info                    : Advanced Video Codec
Codec ID                       : V_MPEG4/ISO/AVC
Duration                       : 2 h 6 min
Bit rate                       : 499 kb/s
Width                          : 1 280 pixels
Height                         : 536 pixels
Display aspect ratio           : 2.40:1
Frame rate mode                : Constant
Frame rate                     : 24.000 FPS
Color space                    : YUV
Chroma subsampling             : 4:2:0
Bit depth                      : 8 bits
Scan type                      : Progressive
Bits/(Pixel*Frame)             : 0.030
Stream size                    : 451 MiB (84%)
Title                          : GOPISAHI
Writing library                : x264 core 155 r2901 7d0ff22

Audio
Format                         : AAC
Format/Info                    : Advanced Audio Codec
Duration                       : 2 h 6 min
Bit rate                       : 96.0 kb/s
Channel(s)                     : 2 channels
Channel positions              : Front: L R
Sampling rate                  : 48.0 kHz
Frame rate                     : 46.875 FPS (1024 SPF)
Compression mode               : Lossy
Delay relative to video        : -64 ms
Stream size                    : 86.9 MiB (16%)
Title                          : GOPISAHI
Language                       : Hindi



TORRENT

MAGNET

 DRIVE 1

DRIVE 2

DRIVE 3

http://www.indishare.me/ld4v4w1cae8o

https://uploadfiles.pw/4bf26d64501d9b22

https://www.oboom.com/NU1VKWN2

https://megaup.net/dxQG/Rangreza_2017_x264_720p_HD__Hindi_GOPISAHI.mkv

https://uptobox.com/bdfnxpkfj3uy

https://uptostream.com/bdfnxpkfj3uy

https://bdupload.info/bonayb171so0

https://openload.co/f/zcbkhExyrTo/Rangreza%25202017%2520x264%2520720p%2520HD%2520%2520Hindi%2520GOPISAHI.mkv.mp4

https://vidoza.net/3pepzmdxnw8o.html

https://vidlox.me/hzbwi2r959vl

http://www.filefactory.com/file/3hr0vyl6jh97/

 Rangreza
(2017) on IMDb



Post a Comment

0 Comments