Search

Scooby-Doo 2002 x264 720p Esub BluRay English Hindi Tamil GOPISAHI


Format                         : Matroska
Format version                 : Version 4 / Version 2
File size                      : 737 MiB
Duration                       : 1 h 26 min
Overall bit rate               : 1 191 kb/s
Movie name                     : Scooby-Doo 2002 GOPISAHI

Video
Format                         : AVC
Format/Info                    : Advanced Video Codec
Codec ID                       : V_MPEG4/ISO/AVC
Duration                       : 1 h 26 min
Bit rate                       : 899 kb/s
Width                          : 1 280 pixels
Height                         : 704 pixels
Display aspect ratio           : 16:9
Frame rate mode                : Constant
Frame rate                     : 23.976 (24000/1001) FPS
Color space                    : YUV
Chroma subsampling             : 4:2:0
Bit depth                      : 8 bits
Scan type                      : Progressive
Bits/(Pixel*Frame)             : 0.042
Stream size                    : 556 MiB (75%)
Title                          : GOPISAHI
Writing library                : x264 core 155 r2901 7d0ff22

Audio #1
Format                         : AAC
Format/Info                    : Advanced Audio Codec
Duration                       : 1 h 26 min
Bit rate                       : 96.0 kb/s
Channel(s)                     : 2 channels
Channel positions              : Front: L R
Sampling rate                  : 48.0 kHz
Frame rate                     : 46.875 FPS (1024 SPF)
Compression mode               : Lossy
Delay relative to video        : -21 ms
Stream size                    : 59.6 MiB (8%)
Title                          : GOPISAHI
Language                       : Tamil

Audio #2
Format                         : AAC
Duration                       : 1 h 26 min
Bit rate                       : 96.0 kb/s
Channel(s)                     : 2 channels
Channel positions              : Front: L R
Sampling rate                  : 48.0 kHz
Frame rate                     : 46.875 FPS (1024 SPF)
Compression mode               : Lossy
Delay relative to video        : -21 ms
Stream size                    : 59.4 MiB (8%)
Title                          : GOPISAHI
Language                       : Hindi

Audio #3
Format                         : AAC
Duration                       : 1 h 26 min
Bit rate                       : 96.0 kb/s
Channel(s)                     : 2 channels
Channel positions              : Front: L R
Sampling rate                  : 48.0 kHz
Frame rate                     : 46.875 FPS (1024 SPF)
Compression mode               : Lossy
Delay relative to video        : -21 ms
Stream size                    : 59.7 MiB (8%)
Title                          : GOPISAHI
Language                       : English

Text
Language                       : English



TORRENT

MAGNET

https://linkshub.me/view/t2OqbsW0eB

 Scooby-Doo
(2002) on IMDb

Post a Comment

2 Comments