S.W.A.T. 2003 x264 720p Esub BluRay Dual Audio English Hindi GOPISAHI

Format                         : Matroska
Format version                 : Version 4 / Version 2
File size                      : 786 MiB
Duration                       : 1 h 57 min
Overall bit rate               : 936 kb/s
Movie name                     : S.W.A.T. 2003 GOPISAHI

Video
Format                         : AVC
Codec ID                       : V_MPEG4/ISO/AVC
Duration                       : 1 h 57 min
Bit rate                       : 741 kb/s
Width                          : 1 280 pixels
Height                         : 528 pixels
Display aspect ratio           : 2.40:1
Frame rate mode                : Constant
Frame rate                     : 23.976 (24000/1001) FPS
Color space                    : YUV
Chroma subsampling             : 4:2:0
Bit depth                      : 8 bits
Scan type                      : Progressive
Bits/(Pixel*Frame)             : 0.046
Stream size                    : 622 MiB (79%)
Title                          : GOPISAHI
Writing library                : x264 core 120 r2164 da19765

Audio #1
Format                         : AAC
Format/Info                    : Advanced Audio Codec
Duration                       : 1 h 57 min
Bit rate                       : 96.0 kb/s
Channel(s)                     : 2 channels
Channel positions              : Front: L R
Sampling rate                  : 48.0 kHz
Frame rate                     : 46.875 FPS (1024 SPF)
Compression mode               : Lossy
Stream size                    : 80.8 MiB (10%)
Title                          : GOPISAHI
Language                       : Hindi

Audio #2
Format                         : AAC
Format/Info                    : Advanced Audio Codec
Duration                       : 1 h 57 min
Bit rate                       : 96.0 kb/s
Channel(s)                     : 2 channels
Channel positions              : Front: L R
Sampling rate                  : 48.0 kHz
Frame rate                     : 46.875 FPS (1024 SPF)
Compression mode               : Lossy
Stream size                    : 80.7 MiB (10%)
Title                          : GOPISAHI
Language                       : English

Text
Language                       : English



TORRENT

MAGNET

https://linkstaker.bid/drive/download.php?id=16ac2ad45e448289b673

http://1upload.pw/Download.php?url=Z0NSWGhFelhqbE5pbEpBbm5jdm5uYThjQmFxMTN4WjJPM0J5TVdBV25GWWVoaWoyL3hVYS91Z0w1OU9GWm4yeg==

https://linksclub.biz/drive/download.php?id=5e28386de3df856af9f8

http://www.indishare.me/v4pgnhc1w8v7

https://uptobox.com/y08gq1k2l729

https://uptostream.com/y08gq1k2l729

https://bdupload.info/p8ja8zmlo93c

https://megaup.net/dAgD/S.W.A.T._2003_x264_720p_Esub_BluRay_Dual_Audio_English_Hindi_GOPISAHI.mkv

https://uploadfiles.pw/ab6f0eeb46354aea

https://www.oboom.com/SXM5UMKC

http://www.filefactory.com/file/h6s2d02ocnt/

https://vidoza.net/h629aftcoolb.html

https://openload.co/f/FEkut1zcHR4/S.W.A.T.%25202003%2520x264%2520720p%2520Esub%2520BluRay%2520Dual%2520Audio%2520English%2520Hindi%2520GOPISAHI.mkv.mp4

https://vidlox.me/31227h8pnt8v

 S.W.A.T.
(2003) on IMDb

Post a Comment

0 Comments