Tera Intezar 2017 x264 720p TV RIP Hindi GOPISAHI


Format                         : Matroska
Format version                 : Version 4 / Version 2
File size                      : 488 MiB
Duration                       : 1 h 37 min
Overall bit rate               : 697 kb/s
Movie name                     : Tera Intezar 2017 GOPISAHI

Video
Format                         : AVC
Format/Info                    : Advanced Video Codec
Codec ID                       : V_MPEG4/ISO/AVC
Duration                       : 1 h 37 min
Bit rate                       : 599 kb/s
Width                          : 1 280 pixels
Height                         : 608 pixels
Display aspect ratio           : 2.105
Frame rate mode                : Constant
Frame rate                     : 29.970 (30000/1001) FPS
Color space                    : YUV
Chroma subsampling             : 4:2:0
Bit depth                      : 8 bits
Scan type                      : Progressive
Bits/(Pixel*Frame)             : 0.026
Stream size                    : 419 MiB (86%)
Title                          : GOPISAHI
Writing library                : x264 core 155 r2901 7d0ff22

Audio
Format                         : AAC
Duration                       : 1 h 37 min
Bit rate                       : 96.0 kb/s
Channel(s)                     : 2 channels
Channel positions              : Front: L R
Sampling rate                  : 48.0 kHz
Frame rate                     : 46.875 FPS (1024 SPF)
Compression mode               : Lossy
Delay relative to video        : -21 ms
Stream size                    : 66.9 MiB (14%)
Title                          : GOPISAHI
Language                       : Hindi




TORRENT

MAGNET

http://1upload.pw/Download.php?url=YzhuMStqQnJDZFp2TmYyK0hlNFlCemtRTEJuTkQ1dVNnV2RUbXZxRVd3WUtzbmttcHdCTmVwcUd0eDNRS3EyUw==

https://linkstaker.bid/drive/download.php?id=905faa8558f7af9bfeea

https://linksclub.biz/drive/download.php?id=99389d6b50ecab1c57a3

https://uploadfiles.pw/522175493a2d74d2

 http://www.indishare.me/jpfjkgnvzzwr

https://megaup.net/dz4o/Tera_Intezar_2017_x264_720p_TV_RIP_Hindi_GOPISAHI.mkv

https://www.oboom.com/JYFKR66U

https://openload.co/f/tjs5vrrjNcw/Tera%2520Intezar%25202017%2520x264%2520720p%2520TV%2520RIP%2520Hindi%2520GOPISAHI.mkv.mp4

https://vidoza.net/6c42yssayegi.html

http://www.filefactory.com/file/hnc1fx26mgj/



350 MB



 Tera Intezaar
(2017) on IMDb


Post a Comment

0 Comments