The Hunger Games 2012 x264 720p Esub BluRay Dual Audio English Hindi GOPISAHI


Format                         : Matroska
Format version                 : Version 4 / Version 2
File size                      : 911 MiB
Duration                       : 2 h 22 min
Overall bit rate               : 894 kb/s
Movie name                     : GOPISAHI

Video
Format                         : AVC
Format/Info                    : Advanced Video Codec
Format profile                 : [email protected]
Codec ID                       : V_MPEG4/ISO/AVC
Duration                       : 2 h 22 min
Bit rate                       : 699 kb/s
Width                          : 1 280 pixels
Height                         : 528 pixels
Display aspect ratio           : 2.40:1
Frame rate mode                : Constant
Frame rate                     : 23.976 (24000/1001) FPS
Color space                    : YUV
Chroma subsampling             : 4:2:0
Bit depth                      : 8 bits
Scan type                      : Progressive
Bits/(Pixel*Frame)             : 0.043
Stream size                    : 712 MiB (78%)
Title                          : GOPISAHI
Writing library                : x264 core 155 r2901 7d0ff22

Audio #1
Format                         : AAC
Format/Info                    : Advanced Audio Codec
Duration                       : 2 h 22 min
Bit rate                       : 96.0 kb/s
Channel(s)                     : 2 channels
Channel positions              : Front: L R
Sampling rate                  : 48.0 kHz
Frame rate                     : 46.875 FPS (1024 SPF)
Compression mode               : Lossy
Delay relative to video        : -67 ms
Stream size                    : 97.9 MiB (11%)
Title                          : GOPISAHI
Language                       : Hindi

Audio #2
Format                         : AAC
Format/Info                    : Advanced Audio Codec
Duration                       : 2 h 22 min
Bit rate                       : 96.0 kb/s
Channel(s)                     : 2 channels
Channel positions              : Front: L R
Sampling rate                  : 48.0 kHz
Frame rate                     : 46.875 FPS (1024 SPF)
Compression mode               : Lossy
Delay relative to video        : -67 ms
Stream size                    : 97.9 MiB (11%)
Title                          : GOPISAHI
Language                       : English

Text
Language                       : English

Menu
00:00:00.000                   : en:District 12
00:10:05.901                   : en:Check In
00:17:59.916                   : en:Try to Win
00:25:05.925                   : en:Advise
00:31:12.708                   : en:First Look
00:43:28.610                   : en:Shoot Straight
00:50:38.873                   : en:Girl On Fire
00:56:58.962                   : en:Special Girl
01:06:57.851                   : en:Countdown
01:15:59.017                   : en:At the Edge
01:22:06.092                   : en:Very Lethal
01:29:00.506                   : en:Not Going to Hurt You
01:38:00.838                   : en:Trapped
01:43:19.239                   : en:Young Love
01:57:56.657                   : en:Only Team
02:09:26.805                   : en:Star Crossed Lovers






 The Hunger Games
(2012) on IMDb

Post a Comment

1 Comments

  1. Please upload all part of hunger games in hindi..

    ReplyDelete