Tikli and Laxmi Bomb Poster 2017 x264 720p HD Esub Hindi GOPISAHI - GOPISAHI

Thursday, 2 August 2018

Tikli and Laxmi Bomb Poster 2017 x264 720p HD Esub Hindi GOPISAHI

NOTE =Koi Be Low Bit Rate Pe Small size De Sakta Hai ,
Dimag Khrab Kyo Karta Hai Tu Dede Low Bit Pe Qulity,
Hai Dam,

Format                         : Matroska
Format version                 : Version 4 / Version 2
File size                      : 753 MiB
Duration                       : 2 h 30 min
Overall bit rate               : 698 kb/s
Movie name                     : Tikli and Laxmi Bomb poster 2017 GOPISAHI

Video
Format                         : AVC
Format/Info                    : Advanced Video Code
Duration                       : 2 h 30 min
Bit rate                       : 599 kb/s
Width                          : 1 280 pixels
Height                         : 540 pixels
Display aspect ratio           : 2.40:1
Frame rate mode                : Constant
Frame rate                     : 24.000 FPS
Color space                    : YUV
Chroma subsampling             : 4:2:0
Bit depth                      : 8 bits
Scan type                      : Progressive
Bits/(Pixel*Frame)             : 0.036
Stream size                    : 646 MiB (86%)
Title                          : GOPISAHI
Writing library                : x264 core 155 r2901 7d0ff22

Audio
Format                         : AAC
Format/Info                    : Advanced Audio Codec
Duration                       : 2 h 30 min
Bit rate                       : 96.0 kb/s
Channel(s)                     : 2 channels
Channel positions              : Front: L R
Sampling rate                  : 48.0 kHz
Frame rate                     : 46.875 FPS (1024 SPF)
Compression mode               : Lossy
Delay relative to video        : -21 ms
Stream size                    : 104 MiB (14%)
Title                          : GOPISAHI
Language                       : Hindi

Text
Language                       : English




TORRENT

MAGNET

https://linkshub.me/view/PD80269qAr

 Tikli and Laxmi Bomb
(2017) on IMDb


No comments:

Post a Comment