Unknown Caller 2014 x264 720p Esub BluRay Dual Audio English Hindi GOPISAHI - GOPISAHI

Tuesday, 7 August 2018

Unknown Caller 2014 x264 720p Esub BluRay Dual Audio English Hindi GOPISAHI


Format                         : Matroska
Format version                 : Version 4 / Version 2
File size                      : 734 MiB
Duration                       : 1 h 43 min
Overall bit rate               : 992 kb/s
Movie name                     : Unknown Caller 2014 GOPISAHI

Video
Format                         : AVC
Format/Info                    : Advanced Video Codec
Codec ID                       : V_MPEG4/ISO/AVC
Duration                       : 1 h 43 min
Bit rate                       : 799 kb/s
Width                          : 1 280 pixels
Height                         : 544 pixels
Display aspect ratio           : 2.35:1
Frame rate mode                : Constant
Frame rate                     : 23.976 (24000/1001) FPS
Color space                    : YUV
Chroma subsampling             : 4:2:0
Bit depth                      : 8 bits
Scan type                      : Progressive
Bits/(Pixel*Frame)             : 0.048
Stream size                    : 590 MiB (80%)
Title                          : GOPISAHI
Writing library                : x264 core 155 r2901 7d0ff22

Audio #1
Format                         : AAC
Format/Info                    : Advanced Audio Codec
Duration                       : 1 h 43 min
Bit rate                       : 96.0 kb/s
Channel(s)                     : 2 channels
Channel positions              : Front: L R
Sampling rate                  : 48.0 kHz
Frame rate                     : 46.875 FPS (1024 SPF)
Compression mode               : Lossy
Delay relative to video        : -63 ms
Stream size                    : 70.7 MiB (10%)
Title                          : GOPISAHI
Language                       : Hindi

Audio #2
Format                         : AAC
Duration                       : 1 h 43 min
Bit rate                       : 96.0 kb/s
Channel(s)                     : 2 channels
Channel positions              : Front: L R
Sampling rate                  : 48.0 kHz
Frame rate                     : 46.875 FPS (1024 SPF)
Compression mode               : Lossy
Delay relative to video        : -33 ms
Stream size                    : 70.6 MiB (10%)
Title                          : GOPISAHI
Language                       : English

Text
Language                       : English

Menu
00:00:00.000                   : en:00:00:00.000
00:02:04.667                   : en:00:02:04.666
00:08:01.356                   : en:00:08:01.356
00:16:37.997                   : en:00:16:37.997
00:30:37.503                   : en:00:30:37.419
00:37:05.932                   : en:00:37:05.932
00:48:41.961                   : en:00:48:41.961
00:59:22.935                   : en:00:59:22.934
01:14:42.937                   : en:01:14:42.937
01:26:14.920                   : en:01:26:14.920
01:32:42.974                   : en:01:32:42.974
01:40:45.081                   : en:01:40:44.956



TORRENT

MAGNET

https://linkshub.me/view/An191AMYWT

 Unknown Caller
(2014) on IMDb


No comments:

Post a Comment