Search

Veere Di Wedding 2018 x264 720p HD Esub Hindi GOPISAHI


Format                         : Matroska
Format version                 : Version 4 / Version 2
File size                      : 579 MiB
Duration                       : 1 h 58 min
Overall bit rate               : 682 kb/s
Movie name                     : Veere Di Wedding 2018 GOPISAHI

Video
Format                         : AVC
Codec ID                       : V_MPEG4/ISO/AVC
Duration                       : 1 h 58 min
Bit rate                       : 599 kb/s
Width                          : 1 280 pixels
Height                         : 544 pixels
Display aspect ratio           : 2.35:1
Frame rate mode                : Constant
Frame rate                     : 25.000 FPS
Color space                    : YUV
Chroma subsampling             : 4:2:0
Bit depth                      : 8 bits
Scan type                      : Progressive
Bits/(Pixel*Frame)             : 0.034
Stream size                    : 509 MiB (88%)
Title                          : GOPISAHI
Writing library                : x264 core 155 r2901 7d0ff22

Audio
Format                         : AAC
Duration                       : 1 h 58 min
Bit rate                       : 80.6 kb/s
Channel(s)                     : 6 channels
Channel positions              : Front: L C R, Side: L R, LFE
Sampling rate                  : 48.0 kHz
Frame rate                     : 46.875 FPS (1024 SPF)
Compression mode               : Lossy
Stream size                    : 68.4 MiB (12%)
Title                          : GOPISAHI
Language                       : Hindi

Text
Language                       : English




TORRENT

MAGNET

https://linkshub.me/view/yyzg5wPCGG

 Veere Di Wedding
(2018) on IMDb


Post a Comment

0 Comments