Wake Of Death 2004 x264 720p Esub BluRay Dual Audio English Hindi GOPISAHI - GOPISAHI

Saturday, 4 August 2018

Wake Of Death 2004 x264 720p Esub BluRay Dual Audio English Hindi GOPISAHI


Format                         : Matroska
Format version                 : Version 4 / Version 2
File size                      : 514 MiB
Duration                       : 1 h 30 min
Overall bit rate               : 793 kb/s
Movie name                     : Wake of Death 2004 GOPISAHI

Video
Format                         : AVC
Codec ID                       : V_MPEG4/ISO/AVC
Duration                       : 1 h 30 min
Bit rate                       : 599 kb/s
Width                          : 1 280 pixels
Height                         : 720 pixels
Display aspect ratio           : 16:9
Frame rate mode                : Constant
Frame rate                     : 23.976 (24000/1001) FPS
Color space                    : YUV
Chroma subsampling             : 4:2:0
Bit depth                      : 8 bits
Scan type                      : Progressive
Bits/(Pixel*Frame)             : 0.027
Stream size                    : 388 MiB (75%)
Title                          : GOPISAHI
Writing library                : x264 core 155 r2901 7d0ff22

Audio #1
Format                         : AAC
Duration                       : 1 h 30 min
Bit rate                       : 96.0 kb/s
Channel(s)                     : 2 channels
Channel positions              : Front: L R
Sampling rate                  : 48.0 kHz
Frame rate                     : 46.875 FPS (1024 SPF)
Compression mode               : Lossy
Delay relative to video        : -21 ms
Stream size                    : 62.3 MiB (12%)
Title                          : GOPISAHI
Language                       : Hindi

Audio #2
Format                         : AAC
Duration                       : 1 h 30 min
Bit rate                       : 96.0 kb/s
Channel(s)                     : 2 channels
Channel positions              : Front: L R
Sampling rate                  : 48.0 kHz
Frame rate                     : 46.875 FPS (1024 SPF)
Compression mode               : Lossy
Delay relative to video        : -21 ms
Stream size                    : 62.2 MiB (12%)
Title                          : GOPISAHI
Language                       : English

Text
Language                       : English

Menu
00:00:00.000                   : en:Chapter 1
00:07:17.062                   : en:Chapter 2
00:15:56.706                   : en:Chapter 3
00:23:56.226                   : en:Chapter 4
00:32:23.316                   : en:Chapter 5
00:40:51.407                   : en:Chapter 6
00:47:15.416                   : en:Chapter 7
00:55:19.274                   : en:Chapter 8
01:02:47.097                   : en:Chapter 9
01:10:08.663                   : en:Chapter 10
01:16:47.770                   : en:Chapter 11
01:23:52.528                   : en:Chapter 12



TORRENT

MAGNET

https://linkshub.me/view/O7LSpcCC7f


 Wake of Death
(2004) on IMDb


No comments:

Post a Comment