+18 Species Quintology x264 720p Esub BluRay Dual Audio English Hindi GOPISAHI


1=Species Ii 1998 GOPISAHI

2=Species III 2004 GOPISAHI

3=The Awakening 2007 GOPISAHI

4=Species 1995 GOPISAHI

Format                         : Matroska
Format version                 : Version 4 / Version 2
File size                      : 596 MiB
Duration                       : 1 h 33 min
Overall bit rate               : 894 kb/s
Movie name                     : Species Ii 1998 GOPISAHI

Video
Format                         : AVC
Format/Info                    : Advanced Video Codec
Codec ID                       : V_MPEG4/ISO/AVC
Duration                       : 1 h 33 min
Bit rate                       : 699 kb/s
Width                          : 1 280 pixels
Height                         : 690 pixels
Display aspect ratio           : 1.85:1
Frame rate mode                : Constant
Frame rate                     : 23.976 (24000/1001) FPS
Color space                    : YUV
Chroma subsampling             : 4:2:0
Bit depth                      : 8 bits
Scan type                      : Progressive
Bits/(Pixel*Frame)             : 0.033
Stream size                    : 466 MiB (78%)
Title                          : GOPISAHI
Writing library                : x264 core 155 r2901 7d0ff22

Audio #1
Format                         : AAC
Format/Info                    : Advanced Audio Codec
Duration                       : 1 h 33 min
Bit rate                       : 96.0 kb/s
Channel(s)                     : 2 channels
Channel positions              : Front: L R
Sampling rate                  : 48.0 kHz
Frame rate                     : 46.875 FPS (1024 SPF)
Compression mode               : Lossy
Delay relative to video        : -21 ms
Stream size                    : 64.0 MiB (11%)
Title                          : GOPISAHI
Language                       : Hindi

Audio #2
Format                         : AAC
Format/Info                    : Advanced Audio Codec
Duration                       : 1 h 33 min
Bit rate                       : 96.0 kb/s
Channel(s)                     : 2 channels
Channel positions              : Front: L R
Sampling rate                  : 48.0 kHz
Frame rate                     : 46.875 FPS (1024 SPF)
Compression mode               : Lossy
Delay relative to video        : -21 ms
Stream size                    : 64.1 MiB (11%)
Title                          : GOPISAHI
Language                       : English

Text
Language                       : English





TORRENT

MAGNET

ZIPER ALL MOVIE GOOGLE DRIVE


 
 HOST BY HOST 
MOVIE BY MOVIE







 
 
 















 Species II
(1998) on IMDb


Post a Comment

2 Comments

  1. REMIX THIS AUDIO with blu-ray version please upload with best quality as I sync THIS audio WITH
    https://mega.nz/#!gCRHSSJL!Exud3_6CG1lprX80KQFaqvtYXoO7w_8kG4N_PHWkrLE

    https://yts.am/movie/tom-and-jerry-in-shiver-me-whiskers-2006

    ReplyDelete
  2. Upload this I requesting from week

    ReplyDelete