Abduction 2011 x264 720p Esub BluRay Dual Audio English Hindi GOPISAHI

Format                         : Matroska
Format version                 : Version 4 / Version 2
File size                      : 796 MiB
Duration                       : 1 h 45 min
Overall bit rate               : 1 050 kb/s
Movie name                     : Abduction 2011 GOPISAHI

Video
Format                         : AVC
Format/Info                    : Advanced Video Codec
Codec ID                       : V_MPEG4/ISO/AVC
Duration                       : 1 h 45 min
Bit rate                       : 888 kb/s
Width                          : 1 280 pixels
Height                         : 530 pixels
Display aspect ratio           : 2.40:1
Frame rate mode                : Constant
Frame rate                     : 23.976 FPS
Color space                    : YUV
Chroma subsampling             : 4:2:0
Bit depth                      : 8 bits
Scan type                      : Progressive
Bits/(Pixel*Frame)             : 0.055
Stream size                    : 673 MiB (84%)
Title                          : GOPISAHI
Writing library                : x264 core 116 r2074 2641b9e

Audio #1
Format                         : AAC
Format/Info                    : Advanced Audio Codec
Duration                       : 1 h 45 min
Bit rate                       : 128 kb/s
Channel(s)                     : 2 channels
Channel positions              : Front: L R
Sampling rate                  : 44.1 kHz
Frame rate                     : 43.066 FPS (1024 SPF)
Compression mode               : Lossy
Stream size                    : 97.0 MiB (12%)
Title                          : GOPISAHI
Language                       : Hindi

Audio #2
ID                             : 3
Format                         : AAC
Format/Info                    : Advanced Audio Codec
Format profile                 : LC
Codec ID                       : A_AAC-2
Duration                       : 1 h 45 min
Bit rate                       : 32.0 kb/s
Channel(s)                     : 2 channels
Channel positions              : Front: L R
Sampling rate                  : 48.0 kHz
Frame rate                     : 46.875 FPS (1024 SPF)
Compression mode               : Lossy
Stream size                    : 24.3 MiB (3%)
Title                          : GOPISAHI
Language                       : English

Text
Language                       : English





TORRENT

MAGNET

https://linksclub.biz/drive/download.php?id=c93dc25a6da705bd1ed4

https://linkstaker.bid/drive/download.php?id=1524684405d3587cfac4

http://1upload.pw/Download.php?url=RzI0c2hxUHZzRFpDVTZFUGlZMGtUMW5zNURUVlhmL2ZZMXBZRmw1N3duMlBCYjhXeGpibjdPdmNlQkwxSS9rTw==

https://www.oboom.com/LMDKFQF9

https://megaup.net/m8oq/Abduction_2011_x264_720p_Esub_BluRay_Dual_Audio_English_Hindi_GOPISAHI.mkv

https://uploadfiles.pw/197536a4dc138e12

http://www.filefactory.com/file/1l3hkjplu275/

https://openload.co/f/i1wX8CK6hRI/Abduction%25202011%2520x264%2520720p%2520Esub%2520BluRay%2520Dual%2520Audio%2520English%2520Hindi%2520GOPISAHI.mkv.mp4

https://uptobox.com/5byrv23n8ndp

https://bdupload.info/cyxovr2eyfxj

http://www.indishare.me/6nokseljtdne


 Abduction
(2011) on IMDb

Post a Comment

1 Comments

  1. Please complete the request this HindI version of Tom and Jerry the movie 1992
    https://mega.nz/#!qHI3RQQT!bw43vbZq6SJLm3LLKw31_3SkQOiOgGgCmnBeYwc6Vrc
    https://1337x.st/torrent/3049166/Tom-Jerry-The-Movie-1992-DVDRip-Tamil-Eng-x264-750MB-TEAMTR/
    ReEncode with this version remove tamil

    ReplyDelete