Baarish Aur Chowmein 2018 Hindi HDRip 720p x264 GOPISAHI


Format                                   : Matroska
Format version                           : Version 4 / Version 2
File size                                : 440 MiB
Duration                                 : 48 min 34 s
Overall bit rate                         : 1 267 kb/s

Video
ID                                       : 1
Format                                   : AVC
Format/Info                              : Advanced Video Codec
Format profile                           : [email protected]
Format settings                          : CABAC / 4 Ref Frames
Format settings, CABAC                   : Yes
Format settings, RefFrames               : 4 frames
Codec ID                                 : V_MPEG4/ISO/AVC
Duration                                 : 48 min 34 s
Bit rate                                 : 1 185 kb/s
Width                                    : 1 274 pixels
Height                                   : 720 pixels
Display aspect ratio                     : 16:9
Frame rate mode                          : Constant
Frame rate                               : 25.000 FPS
Color space                              : YUV
Chroma subsampling                       : 4:2:0
Bit depth                                : 8 bits
Scan type                                : Progressive
Bits/(Pixel*Frame)                       : 0.052
Stream size                              : 417 MiB (95%)
Writing library                          : x264 core 148 r2643 5c65704


Audio
ID                                       : 2
Format                                   : AAC
Format/Info                              : Advanced Audio Codec
Format profile                           : LC
Codec ID                                 : A_AAC-2
Duration                                 : 48 min 34 s
Bit rate                                 : 64.0 kb/s
Channel(s)                               : 1 channel
Channel positions                        : Front: C
Sampling rate                            : 44.1 kHz
Frame rate                               : 43.066 FPS (1024 SPF)
Compression mode                         : Lossy
Delay relative to video                  : -46 ms
Stream size                              : 22.2 MiB (5%)















Post a Comment

0 Comments