Green Lantern 2011 x264 720p Esub BluRay Dual Audio English Hindi GOPISAHI


Format                         : Matroska
Format version                 : Version 4 / Version 2
File size                      : 547 MiB
Duration                       : 2 h 3 min
Overall bit rate mode          : Variable
Overall bit rate               : 618 kb/s
Movie name                     : Green Lantern 2011 GOPISAHI

Video
ID                             : 1
Format                         : AVC
Format/Info                    : Advanced Video Codec
Codec ID                       : V_MPEG4/ISO/AVC
Duration                       : 2 h 3 min
Bit rate                       : 500 kb/s
Width                          : 1 280 pixels
Height                         : 544 pixels
Display aspect ratio           : 2.35:1
Frame rate mode                : Constant
Frame rate                     : 23.976 (24000/1001) FPS
Color space                    : YUV
Chroma subsampling             : 4:2:0
Bit depth                      : 8 bits
Scan type                      : Progressive
Bits/(Pixel*Frame)             : 0.030
Stream size                    : 439 MiB (80%)
Title                          : GOPISAHI
Writing library                : x264 core 130 r2273 b3065e6

Audio #1
Format                         : AAC
Duration                       : 2 h 3 min
Bit rate                       : 64.2 kb/s
Channel(s)                     : 2 channels
Channel positions              : Front: L R
Sampling rate                  : 48.0 kHz
Frame rate                     : 46.875 FPS (1024 SPF)
Compression mode               : Lossy
Stream size                    : 56.8 MiB (10%)
Title                          : GOPISAHI
Language                       : Hindi

Audio #2
Format                         : MPEG Audio
Codec ID/Hint                  : MP3
Duration                       : 2 h 3 min
Bit rate mode                  : Variable
Bit rate                       : 56.0 kb/s
Channel(s)                     : 2 channels
Sampling rate                  : 48.0 kHz
Frame rate                     : 41.665 FPS (1152 SPF)
Compression mode               : Lossy
Stream size                    : 48.4 MiB (9%)
Title                          : GOPISAHI
Writing library                : LAME3.98
Language                       : English

Text
Language                       : English



TORRENT

MAGNET

http://1upload.pw/Download.php?url=a1NBbjhKT2hJTTkzLzlwWFNEQjN2K1o5MGZjVFljckZIYzhqL2pIREhaQWdDQmtiSFBjcUZKRzNGREJ3ZXh2Vg==

https://linkstaker.bid/drive/download.php?id=ea5ee6ad28a84ceec06a

https://bdupload.info/vbqrgwv1t9cp

https://uptobox.com/7no84nlvnik0

http://www.indishare.me/kizlx70glrkn

https://megaup.net/mbcF/Green_Lantern_2011_x264_720p_Esub_BluRay_Dual_Audio_English_Hindi_GOPISAHI.mkv

https://openload.co/f/hMSHAzJX4xY/Green%2520Lantern%25202011%2520x264%2520720p%2520Esub%2520BluRay%2520Dual%2520Audio%2520English%2520Hindi%2520GOPISAHI.mkv.mp4

http://www.filefactory.com/file/4dlmcj67q63r/

https://uploadfiles.pw/0db6992226a34fa0

 Green Lantern
(2011) on IMDb




Post a Comment

0 Comments