Hanna 2011 x264 720p Esub BluRay Dual Audio English Hindi GOPISAHI


Format                         : Matroska
Format version                 : Version 4 / Version 2
File size                      : 802 MiB
Duration                       : 1 h 51 min
Overall bit rate               : 1 010 kb/s
Movie name                     : Hanna 2011 GOPISAHI

Video
Format                         : AVC
Format/Info                    : Advanced Video Codec
Codec ID                       : V_MPEG4/ISO/AVC
Duration                       : 1 h 51 min
Bit rate                       : 836 kb/s
Width                          : 1 280 pixels
Height                         : 536 pixels
Display aspect ratio           : 2.40:1
Frame rate mode                : Constant
Frame rate                     : 23.976 (24000/1001) FPS
Color space                    : YUV
Chroma subsampling             : 4:2:0
Bit depth                      : 8 bits
Scan type                      : Progressive
Bits/(Pixel*Frame)             : 0.051
Stream size                    : 664 MiB (83%)
Title                          : GOPISAHI
Writing library                : x264 core 112 r1867 22bfd31

Audio #1
Format                         : AAC
Duration                       : 1 h 50 min
Bit rate                       : 82.9 kb/s
Channel(s)                     : 6 channels
Channel positions              : Front: L C R, Side: L R, LFE
Sampling rate                  : 48.0 kHz
Frame rate                     : 46.875 FPS (1024 SPF)
Compression mode               : Lossy
Stream size                    : 65.6 MiB (8%)
Title                          : GOPISAHI
Language                       : Hindi

Audio #2
Format                         : AAC
Duration                       : 1 h 51 min
Bit rate                       : 89.1 kb/s
Channel(s)                     : 6 channels
Channel positions              : Front: L C R, Side: L R, LFE
Sampling rate                  : 48.0 kHz
Frame rate                     : 46.875 FPS (1024 SPF)
Compression mode               : Lossy
Stream size                    : 70.8 MiB (9%)
Title                          : GOPISAHI
Language                       : English

Text
Language                       : English



TORRENT

MAGNET

https://my.pcloud.com/publink/show?code=XZe2b17Z89oudIRcXOXDi2up6LUwHbI2gdUX

http://www.mediafire.com/file/mup0dwothw4x5iq/H2011_.zip/file

http://1upload.pw/Download.php?url=UVZsOGlnT0M3WTE4cHZETGtqWHFiMVhFd2o4Q3hMenduNDA2OTV1cWNKL21YN0M3REEwblQrdHNYdHlHRVNLSw==

https://linksclub.biz/drive/download.php?id=57bb2d5eafc7476c52ad

https://linkstaker.bid/drive/download.php?id=c7461457728334f3f3cc

https://uploadfiles.pw/0582dfdc6da5082d

http://www.filefactory.com/file/5d6b2abukxv9/

 https://megaup.net/dO48/Hanna_2011_x264_720p_Esub_BluRay_Dual_Audio_English_Hindi_GOPISAHI.mkv

https://www.oboom.com/F7UBOPS4

https://openload.co/f/QHegQ6S0_W8/Hanna%25202011%2520x264%2520720p%2520Esub%2520BluRay%2520Dual%2520Audio%2520English%2520Hindi%2520GOPISAHI.mkv.mp4

http://www.indishare.me/g33avvgve6jc

https://bdupload.info/q8pqx7pnj6ij

https://uptobox.com/ktxmpfy4t5rw

 Hanna
(2011) on IMDb



Post a Comment

0 Comments