Hugo 2011 x264 720p Esub BluRay Dual Audio English Hindi GOPISAHI


Format                         : Matroska
Format version                 : Version 4 / Version 2
File size                      : 866 MiB
Duration                       : 2 h 6 min
Overall bit rate               : 958 kb/s
Movie name                     : Hugo 2011 GOPISAHI

Video
Format                         : AVC
Format/Info                    : Advanced Video Codec
Codec ID                       : V_MPEG4/ISO/AVC
Duration                       : 2 h 6 min
Bit rate                       : 763 kb/s
Width                          : 1 280 pixels
Height                         : 720 pixels
Display aspect ratio           : 16:9
Frame rate mode                : Constant
Frame rate                     : 23.976 (24000/1001) FPS
Color space                    : YUV
Chroma subsampling             : 4:2:0
Bit depth                      : 8 bits
Scan type                      : Progressive
Bits/(Pixel*Frame)             : 0.035
Stream size                    : 690 MiB (80%)
Title                          : GOPISAHI
Writing library                : x264 core 120 r2164 da19765

Audio #1
Format                         : AAC
Format/Info                    : Advanced Audio Codec
Duration                       : 2 h 6 min
Bit rate                       : 96.0 kb/s
Channel(s)                     : 2 channels
Channel positions              : Front: L R
Sampling rate                  : 48.0 kHz
Frame rate                     : 46.875 FPS (1024 SPF)
Compression mode               : Lossy
Delay relative to video        : 30 ms
Stream size                    : 86.7 MiB (10%)
Title                          : GOPISAHI
Language                       : Hindi

Audio #2
Format                         : AAC
Format/Info                    : Advanced Audio Codec
Duration                       : 2 h 6 min
Bit rate                       : 96.0 kb/s
Channel(s)                     : 2 channels
Channel positions              : Front: L R
Sampling rate                  : 48.0 kHz
Frame rate                     : 46.875 FPS (1024 SPF)
Compression mode               : Lossy
Stream size                    : 86.9 MiB (10%)
Title                          : GOPISAHI
Language                       : English

Text
Language                       : English



TORRENT

MAGNET


http://www.mediafire.com/file/ihsqjh4ifgqbyev/Hu_2011_.zip/file

https://my.pcloud.com/publink/show?code=XZJEj17ZY14Ui2UA2sQLIR070mvPuFv0wmpX

https://linkstaker.bid/drive/download.php?id=d9ba3c4e998ba4222e42

https://linksclub.biz/drive/download.php?id=541cfe6be89b298dd316

http://1upload.pw/Download.php?url=anpNKzJYVjJSRVI3WkU5b3RYdk1WaktmaFRqZmdWR2hxY2Z0UGh3NXp1cjlRUlpsVU5zWW01YWEva3U5THJwWA==

http://www.filefactory.com/file/4qy1yqb7olvr/

https://uploadfiles.pw/ab2191924e190252

https://megaup.net/i0o2/Hugo_2011_x264_720p_Esub_BluRay_Dual_Audio_English_Hindi_GOPISAHI.mkv

https://bdupload.info/g87sv7i1chfv

https://uptobox.com/vkfqfmtng8w0

https://openload.co/f/8c8MSoZxo1E/Hugo%25202011%2520x264%2520720p%2520Esub%2520BluRay%2520Dual%2520Audio%2520English%2520Hindi%2520GOPISAHI.mkv.mp4
http://www.indishare.me/gnb3kt4ktj4v

https://www.oboom.com/LMS1CGHG

 Hugo
(2011) on IMDb


Post a Comment

0 Comments