S.W.A.T. Firefight 2011 x264 720p Esub BluRay Dual Audio English Hindi GOPISAHI


Format                         : Matroska
Format version                 : Version 4 / Version 2
File size                      : 692 MiB
Duration                       : 1 h 28 min
Overall bit rate               : 1 092 kb/s
Movie name                     : S.W.A.T. Firefight 2011 GOPISAHI

Video
Format                         : AVC
Format/Info                    : Advanced Video Codec
Codec ID                       : V_MPEG4/ISO/AVC
Duration                       : 1 h 28 min
Bit rate                       : 899 kb/s
Width                          : 1 280 pixels
Height                         : 720 pixels
Display aspect ratio           : 16:9
Frame rate mode                : Constant
Frame rate                     : 23.976 (24000/1001) FPS
Color space                    : YUV
Chroma subsampling             : 4:2:0
Bit depth                      : 8 bits
Scan type                      : Progressive
Bits/(Pixel*Frame)             : 0.041
Stream size                    : 570 MiB (82%)
Title                          : GOPISAHI
Writing library                : x264 core 120 r2164 da19765

Audio #1
Format                         : AAC
Duration                       : 1 h 27 min
Bit rate                       : 96.0 kb/s
Channel(s)                     : 2 channels
Channel positions              : Front: L R
Sampling rate                  : 48.0 kHz
Frame rate                     : 46.875 FPS (1024 SPF)
Compression mode               : Lossy
Delay relative to video        : 25 s 21 ms
Stream size                    : 59.9 MiB (9%)
Title                          : GOPISAHI
Language                       : Hindi

Audio #2
Format                         : AAC
Format/Info                    : Advanced Audio Codec
Duration                       : 1 h 28 min
Bit rate                       : 96.0 kb/s
Channel(s)                     : 2 channels
Channel positions              : Front: L R
Sampling rate                  : 48.0 kHz
Frame rate                     : 46.875 FPS (1024 SPF)
Compression mode               : Lossy
Stream size                    : 60.9 MiB (9%)
Title                          : GOPISAHI
Language                       : English

Text
Language                       : English



TORRENT

MAGNET

https://my.pcloud.com/publink/show?code=XZgne17Zft1JGMdKwM0hlDKAvwhibQv6qgVk

http://www.mediafire.com/file/t52nq9ysjo8yf2b/S.W.A.T._Fire_2011_.rar/file

http://1upload.pw/Download.php?url=WjNySmlyb1NtdmtqMGtFUlZDRjNDQWdlamNhcnM5YVAwTkNkS2lyNVZpODhQWldRbkluWFBjd0JTSEtEOVlXcg==

https://linkstaker.bid/drive/download.php?id=8f98e0735bf1f343c584

https://linksclub.biz/drive/download.php?id=1cd292514ac8a4a478ec

https://uploadfiles.pw/9e881dd2f2b4a642

https://www.oboom.com/551JX24N

https://megaup.net/mdyV/Too_Big_To_Fail_2011_x264_720p_Esub_BluRay_Dual_Audio_English_Hindi_Italian_GOPISAHI.mkv https://megaup.net/i1qe/S.W.A.T._Firefight_2011_x264_720p_Esub_BluRay_Dual_Audio_English_Hindi_GOPISAHI.mkv

https://uptobox.com/29ry5hrf27an

https://openload.co/f/SiamOr5a88Y/S.W.A.T._Firefight_2011_x264_720p_Esub_BluRay_Dual_Audio_English_Hindi_GOPISAHI.mkv.mp4

 S.W.A.T.: Firefight
(2011) on IMDb


Post a Comment

0 Comments