The Guilt Trip 2012 x264 720p Esub BluRay Dual Audio English Hindi GOPISAHI


Format                         : Matroska
Format version                 : Version 4 / Version 2
File size                      : 679 MiB
Duration                       : 1 h 35 min
Overall bit rate               : 993 kb/s
Movie name                     : The Guilt Trip 2012 GOPISAHI

Video
Format                         : AVC
Format/Info                    : Advanced Video Codec
Codec ID                       : V_MPEG4/ISO/AVC
Duration                       : 1 h 35 min
Bit rate                       : 799 kb/s
Width                          : 1 280 pixels
Height                         : 544 pixels
Display aspect ratio           : 2.35:1
Frame rate mode                : Constant
Frame rate                     : 23.976 (24000/1001) FPS
Color space                    : YUV
Chroma subsampling             : 4:2:0
Bit depth                      : 8 bits
Scan type                      : Progressive
Bits/(Pixel*Frame)             : 0.048
Stream size                    : 546 MiB (80%)
Title                          : GOPISAHI
Writing library                : x264 core 155 r2901 7d0ff22
Language                       : English

Audio #1
Format                         : AAC
Format/Info                    : Advanced Audio Codec
Duration                       : 1 h 35 min
Bit rate                       : 96.0 kb/s
Channel(s)                     : 2 channels
Channel positions              : Front: L R
Sampling rate                  : 48.0 kHz
Frame rate                     : 46.875 FPS (1024 SPF)
Compression mode               : Lossy
Delay relative to video        : -21 ms
Stream size                    : 65.3 MiB (10%)
Title                          : GOPISAHI
Language                       : Hindi

Audio #2
Format                         : AAC
Format/Info                    : Advanced Audio Codec
Duration                       : 1 h 35 min
Bit rate                       : 96.0 kb/s
Channel(s)                     : 2 channels
Channel positions              : Front: L R
Sampling rate                  : 48.0 kHz
Frame rate                     : 46.875 FPS (1024 SPF)
Compression mode               : Lossy
Delay relative to video        : -21 ms
Stream size                    : 65.2 MiB (10%)
Title                          : GOPISAHI
Language                       : English

Text
Language                       : English



TORRENT

MAGNET

http://1upload.pw/Download.php?url=RUFMcTZKdGJHWU1zWE5rcVkzbkZnK04vNWdIVWtUL3RyMUd3TU1WNWpsYTVhTmFJeTRieVdVdGp3cmsyN0Ruaw==

https://drive.google.com/file/d/1Ma653v-2QmGz6asI-Y-dx-C_Eme2bubw/view?usp=drivesdk

https://linksclub.biz/drive/download.php?id=4b1c7fd2e03827416040

https://www.oboom.com/3WIBCW2S

https://uploadfiles.pw/331708811f718686

https://megaup.net/9v8c/The_Guilt_Trip_2012_x264_720p_Esub_BluRay_Dual_Audio_English_Hindi_GOPISAHI.mkv

http://www.filefactory.com/file/1ey7blmhlet/

https://bdupload.info/vqv0envvk61s

https://uptobox.com/x04w0qu6oxpo

https://openload.co/f/QXb-AMejnts/The%2520Guilt%2520Trip%25202012%2520x264%2520720p%2520Esub%2520BluRay%2520Dual%2520Audio%2520English%2520Hindi%2520GOPISAHI.mkv.mp4


 The Guilt Trip
(2012) on IMDb

Post a Comment

0 Comments