Search

101 Dalmatians 2 Patchs London Adventure 2003 720p Esub BluRay Dual Audio English Hindi GOPISAHI


Format                         : Matroska
Format version                 : Version 4 / Version 2
File size                      : 588 MiB
Duration                       : 1 h 13 min
Overall bit rate               : 1 112 kb/s
Movie name                     : 101 Dalmatians 2 Patchs London Adventure 2003

Video
ID                             : 1
Format                         : AVC
Codec ID                       : V_MPEG4/ISO/AVC
Duration                       : 1 h 13 min
Bit rate                       : 940 kb/s
Width                          : 1 280 pixels
Height                         : 720 pixels
Display aspect ratio           : 16:9
Frame rate mode                : Constant
Frame rate                     : 23.976 (24000/1001) FPSsive
Bits/(Pixel*Frame)             : 0.043
Stream size                    : 497 MiB (85%)
Title                          : GOPISAHI
Writing library                : x264 core 125 r2200 999b753

Audio #1
Format                         : AAC
Duration                       : 1 h 13 min
Bit rate                       : 88.9 kb/s
Channel(s)                     : 6 channels
Channel positions              : Front: L C R, Side: L R, LFE
Sampling rate                  : 44.1 kHz
Frame rate                     : 43.066 FPS (1024 SPF)
Delay relative to video        : -125 ms
Stream size                    : 47.0 MiB (8%)
Title                          : GOPISAHI
Language                       : English

Audio #2
Format                         : AAC
Duration                       : 1 h 13 min
Bit rate                       : 80.5 kb/s
Channel(s)                     : 6 channels
Channel positions              : Front: L C R, Side: L R, LFE
Sampling rate                  : 44.1 kHz
Frame rate                     : 43.066 FPS (1024 SPF)
Delay relative to video        : -125 ms
Stream size                    : 42.5 MiB (7%)
Language                       : Hindi

Text
Language                       : English
 
 
 
 

Post a Comment

0 Comments