Search

+18 Coyote Ugly 2000 720p Esub BluRay Dual Audio English Hindi GOPISAHI

Imdb Picture 
Title: Coyote Ugly
Year: 2000
Runtime: 100 minutes
Votes: 97139
Rating: 5.6/10
Language: English
Country: USA
All Genres: Comedy, Drama, Music, Romance
Plot Outline: Aspiring songwriter Violet Sanford, after getting a job at a women-run NYC bar that teases its male patrons, comes out of her shell.
Tagline: The Boss. The Law. The Dreamer. The Flame. The Heartbreaker. The Girls of Coyote Ugly.
Director: David McNally
Writing By: Gina Wendkos,
Produced By: Jerry Bruckheimer,Jeff Eamer,Scott Gardenhour,Jennifer Krug-Worthington,Chad Oman,Pat Sandston,Mike Stenson,
Music: Trevor Horn
Cast:
Piper Perabo as Violet Sanford 
Adam Garcia as Kevin O'Donnell 
John Goodman as Bill 
Maria Bello as Lil 
Izabella Miko as Cammie 
Tyra Banks as Zoe 
Bridget Moynahan as Rachel 
Melanie Lynskey as Gloria 
Del Pentecost as Lou 
Michael Weston as Danny 
Trailers:
Coyote Ugly
Coyote Ugly
Format                         : Matroska
Format version                 : Version 4 / Version 2
File size                      : 656 MiB
Duration                       : 1 h 43 min
Overall bit rate               : 889 kb/s
Movie name                     : Coyote Ugly 2000 GOPISAHI

VideoID                             : 1Format                         : AVC
Codec ID                       : V_MPEG4/ISO/AVC
Duration                       : 1 h 43 min
Bit rate                       : 700 kb/s
Width                          : 1 280 pixels
Height                         : 532 pixels
Display aspect ratio           : 2.40:1
Frame rate mode                : Constant
Frame rate                     : 23.976 (24000/1001) FPS
Color space                    : YUV
Chroma subsampling             : 4:2:0
Bit depth                      : 8 bits
Scan type                      : Progressive
Bits/(Pixel*Frame)             : 0.043
Stream size                    : 516 MiB (79%)
Title                          : GOPISAHI
Writing library                : x264 core 155 r2893 b00bcaf

Audio #1
Format                         : AAC
Duration                       : 1 h 43 min
Bit rate                       : 91.4 kb/s
Channel(s)                     : 6 channels
Channel positions              : Front: L C R, Side: L R, LFE
Sampling rate                  : 44.1 kHz
Frame rate                     : 43.066 FPS (1024 SPF)
Compression mode               : Lossy
Stream size                    : 67.5 MiB (10%)
Title                          : GOPISAHI
Language                       : English

Audio #2
Format                         : AAC
Duration                       : 1 h 42 min
Bit rate                       : 96.0 kb/s
Channel(s)                     : 6 channels
Channel positions              : Front: L C R, Side: L R, LFE
Sampling rate                  : 44.1 kHz
Frame rate                     : 43.066 FPS (1024 SPF)
Compression mode               : Lossy
Stream size                    : 69.8 MiB (11%)
Title                          : GOPISAHI
Language                       : Hindi

Text
Language                       : English
 
 
 

Post a Comment

0 Comments