Search

+18 Dawn of the Dead 2004 720p Esub BlyRay Dual Audio English Hindi GOPISAHI


Format                         : Matroska
Format version                 : Version 4 / Version 2
File size                      : 530 MiB
Duration                       : 1 h 49 min
Overall bit rate               : 678 kb/s
Movie name                     : Dawn of the Dead 2004

Video
Format                         : AVC
Codec ID                       : V_MPEG4/ISO/AVC
Duration                       : 1 h 49 min
Bit rate                       : 500 kb/s
Width                          : 1 280 pixels
Height                         : 544 pixels
Display aspect ratio           : 2.35:1
Frame rate mode                : Constant
Frame rate                     : 23.976 (24000/1001) FPS
Stream size                    : 391 MiB (74%)
Writing library                : x264 core 148 r2708 86b7198

Audio #1
Format                         : AAC
Duration                       : 1 h 49 min
Bit rate                       : 93.3 kb/s
Channel(s)                     : 6 channels
Channel positions              : Front: L C R, Side: L R, LFE
Sampling rate                  : 44.1 kHz
Frame rate                     : 43.066 FPS (1024 SPF)
Compression mode               : Lossy
Stream size                    : 72.9 MiB (14%)
Language                       : Hindi

Audio #2
Format                         : AAC
Duration                       : 1 h 49 min
Bit rate                       : 81.9 kb/s
Channel(s)                     : 6 channels
Channel positions              : Front: L C R, Side: L R, LFE
Sampling rate                  : 44.1 kHz
Frame rate                     : 43.066 FPS (1024 SPF)
Compression mode               : Lossy
Stream size                    : 64.0 MiB (12%)
Language                       : English

Text
Stream size                    : 36.9 KiB (0%)
Language                       : English
 
 
 
 

Post a Comment

0 Comments