Search

+18 Human Desires 1997 DVDRip Dual Audio English Hindi GOPISAHI

 
Format                         : Matroska
Format version                 : Version 4 / Version 2
File size                      : 255 MiB
Duration                       : 1 h 34 min
Overall bit rate               : 377 kb/s
Movie name                     : Human Desires 1997
Video
Format                         : AVC
Codec ID                       : V_MPEG4/ISO/AVC
Duration                       : 1 h 34 min
Bit rate                       : 200 kb/s
Width                          : 640 pixels
Height                         : 480 pixels
Display aspect ratio           : 4:3
Frame rate mode                : Constant
Frame rate                     : 23.976 (24000/1001) FPS
Stream size                    : 135 MiB (53%)
Writing library                : x264 core 148 r2708 86b7198
Audio #1
Format                         : AAC
Duration                       : 1 h 34 min
Bit rate                       : 89.9 kb/s
Channel(s)                     : 6 channels
Channel positions              : Front: L C R, Side: L R, LFE
Sampling rate                  : 44.1 kHz
Frame rate                     : 43.066 FPS (1024 SPF)
Stream size                    : 60.7 MiB (24%)
Language                       : English
Audio #2
Format                         : AAC
Duration                       : 1 h 34 min
Bit rate                       : 84.8 kb/s
Channel(s)                     : 6 channels
Channel positions              : Front: L C R, Side: L R, LFE
Sampling rate                  : 44.1 kHz
Frame rate                     : 43.066 FPS (1024 SPF)
Stream size                    : 57.2 MiB (22%)
Language                       : Hindi
 
 

Post a Comment

0 Comments