Search

Arjan 2017 DVD 720p Punjabi GOPISAHI

Video
ID                             : 1
Codec ID                       : V_MPEG4/ISO/VAC
Duration                       : 2 h 28 min
Bit rate                       : 899 kb/s
Width                          : 1 280 pixels
Height                         : 536 pixels
Display aspect ratio           : 2.40:1
Frame rate mode                : Constant
Frame rate                     : 24.000 FPS
Stream size                    : 952 MiB (95%)
Writing library                : x264 core 130 r2273 b3065e6
Audio
Format                         : AAC
Duration                       : 2 h 28 min
Bit rate                       : 48.0 kb/s
Channel(s)                     : 6 channels
Channel positions              : Front: L C R, Side: L R, LFE
Sampling rate                  : 44.1 kHz
Frame rate                     : 43.066 FPS (1024 spf)
Stream size                    : 52.9 MiB (5%)
http://i.imgur.com/dyupHaA.jpg
http://i.imgur.com/CXDU32Q.jpg
http://i.imgur.com/SL3F73G.jpg

Post a Comment

0 Comments