Search

Armored 2009 720p Esub BluRay Dual Audio English Hindi GOPISAHI

Format                         : Matroska
Format version                 : Version 4 / Version 2
File size                      : 711 MiB
Duration                       : 1 h 27 min
Overall bit rate               : 1 131 kb/s
Movie name                     : Armored 2009
Video
Format                         : AVC
Codec ID                       : V_MPEG4/ISO/AVC
Duration                       : 1 h 27 min
Bit rate                       : 968 kb/s
Width                          : 1 280 pixels
Height                         : 536 pixels
Display aspect ratio           : 2.40:1
Frame rate mode                : Constant
Frame rate                     : 23.976 (24000/1001) FPS
Stream size                    : 609 MiB (86%)
Writing library                : x264 core 138 r2358 9e941d1
Audio #1
Format                         : AAC
Duration                       : 1 h 27 min
Bit rate                       : 84.4 kb/s
Channel(s)                     : 6 channels
Channel positions              : Front: L C R, Side: L R, LFE
Sampling rate                  : 44.1 kHz
Frame rate                     : 43.066 FPS (1024 SPF)
Stream size                    : 53.1 MiB (7%)
Language                       : English
Audio #2
Format                         : AAC
Duration                       : 1 h 23 min
Bit rate                       : 80.1 kb/s
Channel(s)                     : 6 channels
Channel positions              : Front: L C R, Side: L R, LFE
Sampling rate                  : 44.1 kHz
Frame rate                     : 43.066 FPS (1024 SPF)
Stream size                    : 47.7 MiB (7%)
Language                       : Hindi
No
Text
Language                       : English
 
 

Post a Comment

0 Comments