Search

Asterix and the Vikings 2006 720p Esub BluRay Dual Audio English Hindi GOPISAHI



Format                         : Matroska
Format version                 : Version 4 / Version 2
File size                      : 439 MiB
Duration                       : 1 h 18 min
Overall bit rate               : 784 kb/s
Movie name                     : Asterix and the Vikings 2006 WWW.GOPISAHI.COM

Video
ID                             : 3
Format                         : AVC
Format/Info                    : Advanced Video Codec
Format profile                 : [email protected]
Format settings                : CABAC / 9 Ref Frames
Format settings, CABAC         : Yes
Format settings, ReFrames      : 9 frames
Codec ID                       : V_MPEG4/ISO/AVC
Duration                       : 1 h 18 min
Bit rate                       : 600 kb/s
Width                          : 1 280 pixels
Height                         : 688 pixels
Display aspect ratio           : 1.85:1
Frame rate mode                : Constant
Frame rate                     : 24.000 FPS
Stream size                    : 335 MiB (76%)
Title                          : WWW.GOPISAHI.COM
Writing library                : x264 core 148 r2708 86b7198

Audio #1
Format                         : AAC
Duration                       : 1 h 18 min
Bit rate                       : 90.7 kb/s
Channel(s)                     : 6 channels
Channel positions              : Front: L C R, Side: L R, LFE
Sampling rate                  : 44.1 kHz
Frame rate                     : 43.066 FPS (1024 SPF)
Compression mode               : Lossy
Stream size                    : 50.7 MiB (12%)
Language                       : French

Audio #2
Format                         : AAC
Duration                       : 1 h 18 min
Bit rate                       : 90.7 kb/s
Channel(s)                     : 6 channels
Channel positions              : Front: L C R, Side: L R, LFE
Sampling rate                  : 44.1 kHz
Frame rate                     : 43.066 FPS (1024 SPF)
Compression mode               : Lossy
Stream size                    : 50.7 MiB (12%)
Title                          : WWW.GOPISAHI.COM
Language                       : Hindi

Text
Language                       : English




Post a Comment

0 Comments