Search

Atlantis Milos Return 2003 720p Esub BluRay Dual Audio English Hindi GOPISAHI

Format                         : Matroska
Format version                 : Version 4 / Version 2
File size                      : 503 MiB
Duration                       : 1 h 20 min
Overall bit rate               : 875 kb/s
Movie name                     : Atlantis Milos Return 2003

Video
Format                         : AVC
Codec ID                       : V_MPEG4/ISO/AVC
Duration                       : 1 h 20 min
Bit rate                       : 700 kb/s
Width                          : 1 272 pixels
Height                         : 752 pixels
Display aspect ratio           : 5:3
Frame rate mode                : Constant
Frame rate                     : 23.976 (24000/1001) FPS
Stream size                    : 402 MiB (80%)
Writing library                : x264

Audio #1
Format                         : AAC
Duration                       : 1 h 20 min
Bit rate                       : 90.2 kb/s
Channel(s)                     : 6 channels
Channel positions              : Front: L C R, Side: L R, LFE
Sampling rate                  : 44.1 kHz
Frame rate                     : 43.066 FPS (1024 SPF)
Stream size                    : 51.9 MiB (10%)
Language                       : English

Audio #2
Format                         : AAC
Duration                       : 1 h 20 min
Bit rate                       : 82.2 kb/s
Channel(s)                     : 6 channels
Channel positions              : Front: L C R, Side: L R, LFE
Sampling rate                  : 44.1 kHz
Frame rate                     : 43.066 FPS (1024 SPF)
Stream size                    : 47.2 MiB (9%)
Language                       : Hindi

Text #1
Language                       : English

Text #2
Language                       : English


Post a Comment

0 Comments