Search

Baaghi 2 2018 HD 720p Hindi GOPISAHI

Original Title: Baaghi 2
Title: Baaghi 2: Le rebelle
Year: 2018
Runtime: 137 minutes
Votes: 371
Rating: 5.7/10
Language: Hindi
Country: India
All Genres: Action, Thriller
Plot Outline: Ronny, is hired by ex-lover Neha, to track down her daughter Riya, who has been kidnapped.
Director: Ahmed Khan
Writing By: Hussain Dalal,Abbas Hirapurwala,Jojo Khan,Niraj Kumar Mishra,Sajid Nadiadwala, 
Produced By: Bharat Bohra,Dipti Jindal,Rakesh Madhotra,Sajid Nadiadwala,Vikram Raazdan,Vijay Singh, 
Music: Mithoon Julius Packiam 
Cast:
Disha Patani as Neha 
Tiger Shroff as Ronny 
Randeep Hooda as 
Manoj Bajpayee as 
Lakshmi Manchu as 
Prateik as 
Paras Arora as 
Darshan Kumar as 
Shifuji Shaurya Bharadwaj as 
Indraneel Bhattacharya as 
Trailers:
Baaghi 2 Trailer

Format                         : Matroska
Format version                 : Version 4 / Version 2
File size                      : 707 MiB
Duration                       : 2 h 23 min
Overall bit rate               : 690 kb/s
Movie name                     : Baaghi 2 2018 GOPISAHI

Video
Format                         : AVC
Codec ID                       : V_MPEG4/ISO/AVC
Duration                       : 2 h 23 min
Bit rate                       : 600 kb/s
Width                          : 1 280 pixels
Height                         : 540 pixels
Display aspect ratio           : 2.40:1
Frame rate mode                : Constant
Frame rate                     : 15.000 FPS
Stream size                    : 614 MiB (87%)
Title                          : GOPISAHI
Writing library                : x264 core 155 r2893 b00bcaf

Audio
Format                         : AAC
Duration                       : 2 h 23 min
Bit rate                       : 88.5 kb/s
Channel(s)                     : 6 channels
Channel positions              : Front: L C R, Side: L R, LFE
Sampling rate                  : 44.1 kHz
Frame rate                     : 43.066 FPS (1024 SPF)
Compression mode               : Lossy
Stream size                    : 90.6 MiB (13%)
Title                          : GOPISAHI
Language                       : Hindi


 
 

Post a Comment

0 Comments