Search

Bailaras 2017 720p HD Punjabi GOPISAHI

 Format                         : Matroska
Format version                 : Version 4 / Version 2
File size                      : 501 MiB
Duration                       : 2 h 12 min
Overall bit rate               : 527 kb/s
Movie name                     : Bailarasn 2017 GOPISAHI

Video
Format                         : AVC
Codec ID                       : V_MPEG4/ISO/AVC
Duration                       : 2 h 12 min
Bit rate                       : 450 kb/s
Width                          : 1 280 pixels
Height                         : 544 pixels
Display aspect ratio           : 2.35:1
Frame rate mode                : Constant
Frame rate                     : 24.000 FPS
Stream size                    : 427 MiB (85%)
Writing library                : x264 core 148 r2708 86b7198

Audio
Format                         : AAC
Duration                       : 2 h 12 min
Bit rate                       : 75.1 kb/s
Channel(s)                     : 6 channels
Channel positions              : Front: L C R, Side: L R, LFE
Sampling rate                  : 44.1 kHz
Frame rate                     : 43.066 FPS (1024 SPF)
Compression mode               : Lossy
Stream size                    : 71.3 MiB (14%)
Language                       : Panjabi
 
 

Post a Comment

0 Comments