Search

Balto III Wings of Change 2004 720p Esub BRRIP Dual Audio English Hindi GOPISAHI

 Format                         : Matroska
Format version                 : Version 4 / Version 2
File size                      : 644 MiB
Duration                       : 1 h 18 min
Overall bit rate               : 1 153 kb/s
Movie name                     : Balto III Wings of Change 2004

Video
Format                         : AVC
Codec ID                       : V_MPEG4/ISO/AVC
Duration                       : 1 h 18 min
Bit rate                       : 975 kb/s
Width                          : 1 280 pixels
Height                         : 720 pixels
Display aspect ratio           : 16:9
Frame rate mode                : Constant
Frame rate                     : 23.976 (24000/1001) FPS
Stream size                    : 545 MiB (85%)
Writing library                : x264 core 129 r2245 bc13772

Audio #1
Format                         : AAC
Duration                       : 1 h 15 min
Bit rate                       : 90.3 kb/s
Channel(s)                     : 6 channels
Channel positions              : Front: L C R, Side: L R, LFE
Sampling rate                  : 44.1 kHz
Frame rate                     : 43.066 FPS (1024 SPF)
Stream size                    : 48.5 MiB (8%)
Language                       : Hindi

Audio #2
Format                         : AAC
Duration                       : 1 h 18 min
Bit rate                       : 87.7 kb/s
Channel(s)                     : 6 channels
Channel positions              : Front: L C R, Side: L R, LFE
Sampling rate                  : 44.1 kHz
Frame rate                     : 43.066 FPS (1024 SPF)
Stream size                    : 49.0 MiB (8%)
Language                       : English

Text
Language                       : English



Post a Comment

1 Comments