Search

Bangkok Dangerous 2008 720p Esub BluRay Dual Audio English Hindi GOPISAHI


Format                         : Matroska
Format version                 : Version 4 / Version 2
File size                      : 774 MiB
Duration                       : 1 h 35 min
Overall bit rate               : 1 138 kb/s
Movie name                     : Bangkok Dangerous 2008

Video
Format                         : AVC
Codec ID                       : V_MPEG4/ISO/AVC
Duration                       : 1 h 35 min
Bit rate                       : 966 kb/s
Width                          : 1 280 pixels
Height                         : 720 pixels
Display aspect ratio           : 16:9
Frame rate                     : 25.000 FPS
Stream size                    : 656 MiB (85%)
Title                          : GOPISAHI
Writing library                : x264

Audio #1
Format                         : AAC
Duration                       : 1 h 35 min
Bit rate                       : 82.0 kb/s
Channel(s)                     : 6 channels
Channel positions              : Front: L C R, Side: L R, LFE
Sampling rate                  : 44.1 kHz
Frame rate                     : 43.066 FPS (1024 SPF)
Stream size                    : 55.8 MiB (7%)
Language                       : English

Audio #2
Format                         : AAC
Duration                       : 1 h 35 min
Bit rate                       : 88.7 kb/s
Channel(s)                     : 6 channels
Channel positions              : Front: L C R, Side: L R, LFE
Sampling rate                  : 44.1 kHz
Frame rate                     : 43.066 FPS (1024 SPF)
Stream size                    : 60.4 MiB (8%)
Title                          : GOPISAHI
Language                       : Hindi

Text
Language                       : English
 
 

Post a Comment

0 Comments