Search

Barnyard 2006 720p x264 Esub BluRay Dual Audio English Hindi GOPISAHI


Format                         : Matroska
Format version                 : Version 4 / Version 2
File size                      : 421 MiB
Duration                       : 1 h 26 min
Overall bit rate               : 680 kb/s
Movie name                     : Barnyard 2006 GOPISAHI

Video
Format                         : AVC
Codec ID                       : V_MPEG4/ISO/AVC
Duration                       : 1 h 25 min
Bit rate                       : 500 kb/s
Width                          : 1 280 pixels
Height                         : 720 pixels
Display aspect ratio           : 16:9
Frame rate mode                : Constant
Frame rate                     : 25.000 FPS
Stream size                    : 307 MiB (73%)
Writing library                : x264 core 155 r2893 b00bcaf

Audio #1
Format                         : AAC
Duration                       : 1 h 25 min
Bit rate                       : 91.8 kb/s
Channel(s)                     : 6 channels
Channel positions              : Front: L C R, Side: L R, LFE
Sampling rate                  : 44.1 kHz
Frame rate                     : 43.066 FPS (1024 SPF)
Compression mode               : Lossy
Stream size                    : 56.4 MiB (13%)
Language                       : English

Audio #2
Format                         : AAC
Duration                       : 1 h 26 min
Bit rate                       : 89.7 kb/s
Channel(s)                     : 6 channels
Channel positions              : Front: L C R, Side: L R, LFE
Sampling rate                  : 44.1 kHz
Frame rate                     : 43.066 FPS (1024 SPF)
Compression mode               : Lossy
Delay relative to video        : 22 ms
Stream size                    : 55.5 MiB (13%)
Title                          : GOPISAHI
Language                       : Hindi

Text
Language                       : English


Post a Comment

0 Comments