Search

Bleeding Steel 2017 720p Esub BluRay Dual Audio English Hindi



NOTE HINDI CLEAN CAM AUDIO 

Format : Matroska 
Format version : Version 4 / Version 2 
File size : 774 MiB 
Duration : 1 h 50 min 
Overall bit rate : 982 kb/s 
Movie name : Bleeding Steel 2017 GOPISAHI.BID 

Video 
Format : AVC 
Codec ID : V_MPEG4/ISO/AVC 
Duration : 1 h 50 min 
Bit rate : 800 kb/s 
Width : 1 280 pixels 
Height : 536 pixels 
Display aspect ratio : 2.40:1 
Frame rate mode : Constant 
Frame rate : 23.976 (24000/1001) FPS 
Stream size : 630 MiB (81%) 
Title : GOPISAHI.BID 
Writing library : x264 core 148 r2708 86b7198 

Audio #1 
Format : AAC 
Duration : 1 h 50 min 
Bit rate : 87.2 kb/s 
Channel(s) : 6 channels 
Channel positions : Front: L C R, Side: L R, LFE 
Sampling rate : 44.1 kHz 
Frame rate : 43.066 FPS (1024 SPF) 
Compression mode : Lossy 
Stream size : 68.7 MiB (9%) 
Title : GOPISAHI.BID 
Language : English 

Audio #2 
Format : AAC 
Duration : 1 h 49 min 
Bit rate : 93.6 kb/s 
Channel(s) : 2 channels 
Channel positions : Front: L R 
Sampling rate : 44.1 kHz 
Frame rate : 43.066 FPS (1024 SPF) 
Compression mode : Lossy 
Stream size : 73.2 MiB (9%) 
Title : GOPISAHI.BID 
Language : Hindi 




Post a Comment

0 Comments