Search

Bloodrayne 2005 720p BluRay Esub Dual Audio English Hindi GOPISAHI

Format                         : Matroska
Format version                 : Version 4 / Version 2
File size                      : 809 MiB
Duration                       : 1 h 34 min
Overall bit rate               : 1 198 kb/s
Movie name                     : Bloodrayne 2005
Video
Format                         : AVC
Codec ID                       : V_MPEG4/ISO/AVC
Duration                       : 1 h 34 min
Bit rate                       : 1 035 kb/s
Width                          : 1 280 pixels
Height                         : 720 pixels
Display aspect ratio           : 16:9
Frame rate mode                : Constant
Frame rate                     : 23.976 (23976/1000) FPS
Original frame rate            : 23.976 (24000/1001) FPS
Writing library                : x264 core 146 r2538 121396c
Audio #1
Format                         : AC-3n
Bit rate mode                  : Constant
Bit rate                       : 96.0 kb/s
Channel(s)                     : 6 channels
Channel positions              : Front: L C R, Side: L R, LFE
Sampling rate                  : 44.1 kHz
Frame rate                     : 28.711 FPS (1536 SPF)
Stream size                    : 64.9 MiB (8%)
Language                       : English
Audio #2
Format                         : AAC
Duration                       : 1 h 27 min
Bit rate                       : 72.0 kb/s
Channel(s)                     : 6 channels
Channel positions              : Front: L C R, Side: L R, LFE
Sampling rate                  : 44.1 kHz
Frame rate                     : 43.066 FPS (1024 SPF)
Stream size                    : 44.2 MiB (5%)
Language                       : Hindi
Text
Language                       : English