Search

Boiler Room 2000 720p Esub BluRay Dual Audio English Hindi 5.1 GOPI SAHI


Boiler Room Poster
Video
ID                             : 1
Format                         : AVCs
Codec ID                       : V_MPEG4/ISO/AVC
Duration                       : 1 h 59 min
Bit rate                       : 699 kb/s
Width                          : 1 280 pixels
Height                         : 720 pixels
Display aspect ratio           : 16:9
Frame rate mode                : Constant
Frame rate                     : 23.976 (24000/1001) FPS
Stream size                    : 593 MiB (79%)
Writing library                : x264 core 130 r2273 b3065e6

Audio #1
Format                         : AAC
Duration                       : 1 h 59 min
Bit rate                       : 96.0 kb/s
Channel(s)                     : 6 channels
Channel positions              : Front: L C R, Side: L R, LFE
Sampling rate                  : 44.1 kHz
Frame rate                     : 43.066 FPS (1024 spf
Stream size                    : 81.2 MiB (11%)
Language                       : Hindi

Audio #2
Format                         : AAC
Duration                       : 1 h 59 min
Bit rate                       : 89.5 kb/s
Channel(s)                     : 6 channels
Channel positions              : Front: L C R, Side: L R, LFE
Sampling rate                  : 44.1 kHz
Frame rate                     : 43.066 FPS (1024 spf)
Stream size                    : 76.5 MiB (10%)
Language                       : English

Text
Duration                       : 1 h 52 min
Stream size                    : 79.1 KiB (0%)
Language                       : English
  

Post a Comment

0 Comments