Search

Bug 2006 720p Esub BrRiP Dual Audio English Hindi GOPISAHI


Format                         : Matroska
Format version                 : Version 4 / Version 2
File size                      : 993 MiB
Duration                       : 1 h 41 min
Overall bit rate               : 1 365 kb/s

Video
Format                         : AVC
Codec ID                       : V_MPEG4/ISO/AVC
Duration                       : 1 h 41 min
Bit rate                       : 1 200 kb/s
Width                          : 1 280 pixels
Height                         : 720 pixels
Display aspect ratio           : 16:9
Frame rate mode                : Variable
Frame rate                     : 23.976 FPS
Stream size                    : 867 MiB (87%)
Writing library                : x264 core 120
Color range                    : Limited

Audio #1
Format                         : AAC
Duration                       : 1 h 41 min
Bit rate                       : 89.9 kb/s
Channel(s)                     : 6 channels
Channel positions              : Front: L C R, Side: L R, LFE
Sampling rate                  : 44.1 kHz
Frame rate                     : 43.066 FPS (1024 SPF)
Stream size                    : 65.4 MiB (7%)
Language                       : English

Audio #2
Format                         : AAC
Duration                       : 1 h 41 min
Bit rate                       : 79.6 kb/s
Channel(s)                     : 6 channels
Channel positions              : Front: L C R, Side: L R, LFE
Sampling rate                  : 44.1 kHz
Frame rate                     : 43.066 FPS (1024 SPF)
Stream size                    : 57.9 MiB (6%)
Language                       : Hindi BY Khiladi786

Text
Language                       : English


Post a Comment

0 Comments