Search

Camp Rock 2008 720p Esub TV-RIP Dual Audio English Hindi GOPISAHI


Format                         : Matroska
Format version                 : Version 4 / Version 2
File size                      : 691 MiB
Duration                       : 1 h 33 min
Overall bit rate               : 1 036 kb/s
Movie name                     : Camp Rock 2008

Video
Format                         : AVC
Codec ID                       : V_MPEG4/ISO/AVC
Duration                       : 1 h 33 min
Bit rate                       : 845 kb/s
Width                          : 1 280 pixels
Height                         : 544 pixels
Display aspect ratio           : 16:9
Frame rate mode                : Constant
Frame rate                     : 23.976 (24000/1001) FPS
Original frame rate            : 23.976 (23976/1000) FPS
Bits/(Pixel*Frame)             : 0.051
Stream size                    : 563 MiB (82%)
Writing library                : x264

Audio #1
Format                         : AAC
Duration                       : 1 h 33 min
Bit rate                       : 88.9 kb/s
Channel(s)                     : 6 channels
Channel positions              : Front: L C R, Side: L R, LFE
Sampling rate                  : 44.1 kHz
Frame rate                     : 43.066 FPS (1024 SPF)
Stream size                    : 59.3 MiB (9%)
Language                       : English

Audio #2
Format                         : AAC
Duration                       : 1 h 33 min
Bit rate                       : 98.8 kb/s
Channel(s)                     : 6 channels
Channel positions              : Front: L C R, Side: L R, LFE
Sampling rate                  : 44.1 kHz
Frame rate                     : 43.066 FPS (1024 SPF)
Stream size                    : 65.9 MiB (10%)
Language                       : Hindi

Text
Language                       : English
 
 

Post a Comment

0 Comments