Search

Cast Away 2000 720p x264 Esub BluRay Dual Audio English Hindi GOPISAHI


Title: Cast Away
Year: 2000
Runtime: 143 minutes
Votes: 443666
Rating: 7.8/10
Language: English, Russian
Country: USA
All Genres: Adventure, Drama, Romance
Plot Outline: A FedEx executive must transform himself physically and emotionally to survive a crash landing on a deserted island.
Tagline: At the edge of the world, his journey begins.
Director: Robert Zemeckis
Writing By: William Broyles Jr.,
Produced By: Steven J. Boyd,Joan Bradshaw,Tom Hanks,Cherylanne Martin,Jack Rapke,Steve Starkey,Robert Zemeckis,
Music: Alan Silvestri
Cast:
Tom Hanks as Chuck Noland 
Paul Sanchez as Ramon 
Lari White as Bettina Peterson 
Leonid Citer as Fyodor 
David Allen Brooks as Dick Peterson 
Yelena Popovic as Beautiful Russian Woman 
Valentina Ananina as Russian Babushka 
Semion Sudarikov as Nicolai 
Peter Von Berg as Yuri 
Dmitri S. Boudrine as Lev 

iMDB

Format                         : Matroska
Format version                 : Version 4 / Version 2
File size                      : 696 MiB
Duration                       : 2 h 23 min
Overall bit rate               : 676 kb/s
Movie name                     : Cast Away 2000 GOPI SAHI

Video
Format                         : AVC
Codec ID                       : V_MPEG4/ISO/AVC
Duration                       : 2 h 23 min
Bit rate                       : 500 kb/s
Width                          : 1 280 pixels
Height                         : 696 pixels
Display aspect ratio           : 1.85:1
Frame rate mode                : Constant
Frame rate                     : 23.976 (24000/1001) FPS
Stream size                    : 514 MiB (74%)
Title                          : GOPISAHI
Writing library                : x264 core 155 r2893 b00bcaf

Audio #1
Format                         : AAC
Duration                       : 2 h 23 min
Bit rate                       : 87.1 kb/s
Channel(s)                     : 6 channels
Channel positions              : Front: L C R, Side: L R, LFE
Sampling rate                  : 44.1 kHz
Frame rate                     : 43.066 FPS (1024 SPF)
Compression mode               : Lossy
Stream size                    : 89.6 MiB (13%)
Title                          : GOPISAHI
Language                       : English

Audio #2
Format                         : AAC
Duration                       : 2 h 23 min
Bit rate                       : 87.0 kb/s
Channel(s)                     : 6 channels
Channel positions              : Front: L C R, Side: L R, LFE
Sampling rate                  : 44.1 kHz
Frame rate                     : 43.066 FPS (1024 SPF)
Compression mode               : Lossy
Stream size                    : 89.5 MiB (13%)
Title                          : GOPISAHI
Language                       : Hindi

Text
Language                       : English
 
 
 

Post a Comment

0 Comments