Search

Channa Mereya 2017 720p x264 HD Punjabi GOPISAHI


Format                         : Matroska
Format version                 : Version 4 / Version 2
File size                      : 468 MiB
Duration                       : 2 h 12 min
Overall bit rate               : 495 kb/s
Movie name                     : Channa Mereya 2017 GOPISAHI

Video
Format                         : AVC
Codec ID                       : V_MPEG4/ISO/AVC
Duration                       : 2 h 12 min
Bit rate                       : 400 kb/s
Width                          : 1 280 pixels
Height                         : 544 pixels
Display aspect ratio           : 2.35:1
Frame rate mode                : Constant
Frame rate                     : 23.976 (24000/1001) FPS
Stream size                    : 378 MiB (81%)
Title                          : GOPISAHI
Writing library                : x264 core 155 r2893 b00bcaf

Audio
Bit rate                       : 93.6 kb/s
Channel(s)                     : 2 channels
Channel positions              : Front: L R
Sampling rate                  : 44.1 kHz
Frame rate                     : 43.066 FPS (1024 SPF)
Compression mode               : Lossy
Stream size                    : 88.5 MiB (19%)
Title                          : GOPISAHI
Language                       : Panjabi
 
 

Post a Comment

0 Comments