Search

Crouching Tiger Hidden Dragon 2000 720p x264 Esub BluRay English Chinese Hindi GOPISAHI


Format                         : Matroska
Format version                 : Version 4 / Version 2
File size                      : 569 MiB
Duration                       : 2 h 0 min
Overall bit rate               : 661 kb/s
Movie name                     : Crouching Tiger Hidden Dragon 2000 GOPISAHI

Video
Format                         : AVC
Codec ID                       : V_MPEG4/ISO/AVC
Duration                       : 2 h 0 min
Bit rate                       : 400 kb/s
Width                          : 1 280 pixels
Height                         : 528 pixels
Display aspect ratio           : 2.40:1
Frame rate mode                : Constant
Frame rate                     : 23.976 (24000/1001) FPS
Color space                    : YUV
Chroma subsampling             : 4:2:0
Bit depth                      : 8 bits
Scan type                      : Progressive
Bits/(Pixel*Frame)             : 0.025
Stream size                    : 344 MiB (60%)
Title                          : GOPISAHI
Writing library                : x264 core 155 r2893 b00bcaf

Audio #1
ID                             : 2
Format                         : AAC
Duration                       : 1 h 55 min
Bit rate                       : 82.5 kb/s
Channel(s)                     : 6 channels
Channel positions              : Front: L C R, Side: L R, LFE
Sampling rate                  : 44.1 kHz
Frame rate                     : 43.066 FPS (1024 SPF)
Compression mode               : Lossy
Stream size                    : 68.4 MiB (12%)
Title                          : GOPISAHI
Language                       : Hindi

Audio #2
Format                         : AAC
Duration                       : 2 h 0 min
Bit rate                       : 89.3 kb/s
Channel(s)                     : 6 channels
Channel positions              : Front: L C R, Side: L R, LFE
Sampling rate                  : 44.1 kHz
Frame rate                     : 43.066 FPS (1024 SPF)
Compression mode               : Lossy
Delay relative to video        : 1 s 0 ms
Stream size                    : 76.8 MiB (13%)
Title                          : GOPISAHI
Language                       : Chinese

Audio #3
Format                         : AAC
Duration                       : 2 h 0 min
Bit rate                       : 89.3 kb/s
Channel(s)                     : 6 channels
Channel positions              : Front: L C R, Side: L R, LFE
Sampling rate                  : 44.1 kHz
Frame rate                     : 43.066 FPS (1024 SPF)
Compression mode               : Lossy
Delay relative to video        : 1 s 0 ms
Stream size                    : 76.8 MiB (14%)
Title                          : GOPISAHI
Language                       : English

Text
Language                       : English


Post a Comment

0 Comments