Search

Cursed 2005 720p Esub BluRay Dual Audio English Hindi GOPISAHI


Video
Format                         : AVC
Codec ID                       : V_MPEG4/ISO/AVC
Duration                       : 1 h 36 min
Bit rate                       : 1 087 kb/s
Width                          : 1 280 pixels
Height                         : 720 pixels
Display aspect ratio           : 16:9
Frame rate mode                : Constant
Frame rate                     : 23.976 (23976/1000) FPS
Original frame rate            : 23.976 (24000/1001) FPS
Stream size                    : 753 MiB (79%)
Writing library                : x264 core 120 r2164 da19765

Audio #1
Format                         : MPEG Audio
Codec ID                       : A_MPEG/L3
Codec ID/Hint                  : MP3
Duration                       : 1 h 36 min
Bit rate mode                  : Constant
Bit rate                       : 224 kb/s
Channel(s)                     : 2 channels
Sampling rate                  : 48.0 kHz
Frame rate                     : 41.600 FPS (1154 SPF)
Stream size                    : 155 MiB (16%)
Writing library                : LAME3.99. 5´¨-±ï /  / â.
Language                       : Hindi

Audio #2
Format                         : AAC
Duration                       : 1 h 36 min
Bit rate                       : 61.5 kb/s
Channel(s)                     : 6 channels
Channel positions              : Front: L C R, Side: L R, LFE
Sampling rate                  : 48.0 kHz / 24.0 kHz
Frame rate                     : 23.438 FPS (1024 SPF)
Compression mode               : Lossy
Stream size                    : 42.7 MiB (4%)
Language                       : English

Text
Language                       : English