Search

Dangal 2016 720p Esub BluRay Hindi GOPI SAHI

Dangal Poster
Video
Codec ID                       : V_MPEG4/ISO/AVC
Duration                       : 2 h 41 min
Bit rate                       : 699 kb/s
Width                          : 1 280 pixels
Height                         : 536 pixels
Display aspect ratio           : 2.40:1
Frame rate mode                : Constant
Frame rate                     : 24.000 FPS
Stream size                    : 795 MiB (88%)
Writing library                : x264 core 130 r2273 b3065e6
Audio
Duration                       : 2 h 41 min
Bit rate                       : 89.6 kb/s
Channel(s)                     : 6 channels
Channel positions              : Front: L C R, Side: L R, LFE
Sampling rate                  : 44.1 kHz
Frame rate                     : 43.066 FPS (1024 spf)
Stream size                    : 103 MiB (11%)
Title                          : GOPI SAHI
Language                       : Hindi
Text
Duration                       : 2 h 33 min
Stream size                    : 62.1 KiB (0%)
Language                       : English
http://i.imgur.com/prpvK05.jpg
http://i.imgur.com/cWzPvfJ.jpg
 

Post a Comment

0 Comments