Search

Dead Drop 2013 720p Esub BluRay Dual Audio English Hindi GOPISAHI

 
Format                         : Matroska
Format version                 : Version 4 / Version 2
File size                      : 554 MiB
Duration                       : 1 h 28 min
Overall bit rate               : 870 kb/s
Movie name                     : Dead Drop 2013 GOPISAHI

Video
Format                         : AVC
Codec ID                       : V_MPEG4/ISO/AVC
Duration                       : 1 h 28 min
Bit rate                       : 700 kb/s
Width                          : 1 280 pixels
Height                         : 720 pixels
Display aspect ratio           : 16:9
Frame rate mode                : Constant
Frame rate                     : 23.976 (24000/1001) FPS
Stream size                    : 445 MiB (80%)
Title                          : GOPISAHI
Writing library                : x264 core 155 r2893 b00bcaf

Audio #1
Format                         : AAC
Duration                       : 1 h 28 min
Bit rate                       : 82.1 kb/s
Channel(s)                     : 6 channels
Channel positions              : Front: L C R, Side: L R, LFE
Sampling rate                  : 44.1 kHz
Frame rate                     : 43.066 FPS (1024 SPF)
Compression mode               : Lossy
Stream size                    : 52.2 MiB (9%)
Title                          : GOPISAHI
Language                       : English

Audio #2
Format                         : AAC
Duration                       : 1 h 28 min
Bit rate                       : 85.7 kb/s
Channel(s)                     : 6 channels
Channel positions              : Front: L C R, Side: L R, LFE
Sampling rate                  : 44.1 kHz
Frame rate                     : 43.066 FPS (1024 SPF)
Compression mode               : Lossy
Stream size                    : 54.5 MiB (10%)
Title                          : GOPISAHI
Language                       : Hindi

Text
Language                       : English

 
 

Post a Comment

0 Comments