Search

Dead In Tombstone 2013 720p Esub BluRay Dual Audio English Hindi GOPISAHI

 https://2.bp.blogspot.com/-5JeHyIj5Hy4/WsbOX6E05ZI/AAAAAAAAViM/KEJEoHMyDxICjurgCwC_9wJpS2oimA-MgCLcBGAs/s1600/dd.jpg
Format                         : Matroska
Format version                 : Version 4 / Version 2
File size                      : 621 MiB
Duration                       : 1 h 39 min
Overall bit rate               : 868 kb/s
Movie name                     : Dead In Tombstone 2013 GOPISAHI

Video
Format                         : AVC
Codec ID                       : V_MPEG4/ISO/AVC
Duration                       : 1 h 39 min
Bit rate                       : 700 kb/s
Width                          : 1 280 pixels
Height                         : 544 pixels
Display aspect ratio           : 2.35:1
Frame rate mode                : Constant
Frame rate                     : 23.976 (24000/1001) FPS
Stream size                    : 499 MiB (80%)
Title                          : GOPI SAHI
Writing library                : x264 core 130 r2273 b3065e6
Audio#1
Format                         : AAC
Duration                       : 1 h 39 min
Bit rate                       : 86.0 kb/s
Channel(s)                     : 6 channels
Channel positions              : Front: L C R, Side: L R, LFE
Sampling rate                  : 44.1 kHz
Frame rate                     : 43.066 FPS (1024 SPF)
Compression mode               : Lossy
Stream size                    : 61.5 MiB (10%)
Title                          : GOPISAHI
Language                       : English

Audio #2
Format                         : AAC
Duration                       : 1 h 39 min
Bit rate                       : 81.7 kb/s
Channel(s)                     : 6 channels
Channel positions              : Front: L C R, Side: L R, LFE
Sampling rate                  : 44.1 kHz
Frame rate                     : 43.066 FPS (1024 SPF)
Compression mode               : Lossy
Stream size                    : 58.4 MiB (9%)
Title                          : GOPISAHI
Language                       : Hindi

Text
Language                       : English
 
 

Post a Comment

0 Comments