Search

Dharam Yudh Morcha 2017 720p HD RIP Punjabi GOPISAHI


Format                         : Matroska
Format version                 : Version 4 / Version 2
File size                      : 686 MiB
Duration                       : 2 h 1 min
Overall bit rate               : 787 kb/s
Movie name                     : Dharam Yudh Morcha 2017 GD @ GOPISAHI

Video
Format                         : AVC
Codec ID                       : V_MPEG4/ISO/AVC
Duration                       : 2 h 1 min
Bit rate                       : 699 kb/s
Width                          : 1 280 pixels
Height                         : 492 pixels
Display aspect ratio           : 2.602
Frame rate mode                : Constant
Frame rate                     : 24.000 FPS
Stream size                    : 609 MiB (89%)
Title                          : GD @ GOPISAHI
Writing library                : x264 core 148 r2708 86b7198
Language                       : Panjabi

Audio
Format                         : AAC
Duration                       : 2 h 1 min
Bit rate                       : 86.2 kb/s
Channel(s)                     : 6 channels
Channel positions              : Front: L C R, Side: L R, LFE
Sampling rate                  : 44.1 kHz
Frame rate                     : 43.066 FPS (1024 SPF)
Stream size                    : 75.1 MiB (11%)
Title                          : GD @ GOPISAHI
Language                       : Panjabi
 
 

Post a Comment

0 Comments