Search

District B13 2004 720p Esub BlyRay Dual Audio English Hindi GOPISAHI


Format                         : Matroska
Format version                 : Version 4 / Version 2
File size                      : 413 MiB
Duration                       : 1 h 24 min
Overall bit rate               : 682 kb/s
Movie name                     : District B13 2004 GOPISAHI

Video
Format                         : AVC
Codec ID                       : V_MPEG4/ISO/AVC
Duration                       : 1 h 24 min
Bit rate                       : 500 kb/s
Width                          : 1 276 pixels
Height                         : 544 pixels
Display aspect ratio           : 2.35:1
Frame rate mode                : Constant
Frame rate                     : 23.976 (24000/1001) FPS
Stream size                    : 302 MiB (73%)
Writing library                : x264

Audio #1
Format                         : AAC
Duration                       : 1 h 24 min
Bit rate                       : 87.4 kb/s
Channel(s)                     : 6 channels
Channel positions              : Front: L C R, Side: L R, LFE
Sampling rate                  : 44.1 kHz
Frame rate                     : 43.066 FPS (1024 SPF)
Stream size                    : 52.8 MiB (13%)
Language                       : English

Audio #2
Format                         : AAC
Duration                       : 1 h 24 min
Bit rate                       : 92.7 kb/s
Channel(s)                     : 6 channels
Channel positions              : Front: L C R, Side: L R, LFE
Sampling rate                  : 44.1 kHz
Frame rate                     : 43.066 FPS (1024 SPF)
Stream size                    : 56.1 MiB (14%)
Language                       : Hindi

Text
Language                       : English
 
 

Post a Comment

0 Comments