Search

Disturbia 2007 720p Esub BluRay Dual Audio English Hindi GOPISAHI


Format                         : Matroska
Format version                 : Version 4 / Version 2
File size                      : 732 MiB
Duration                       : 1 h 35 min
Overall bit rate               : 1 070 kb/s
Movie name                     : Disturbia 2007

Video
Format                         : AVC
Codec ID                       : V_MPEG4/ISO/AVC
Duration                       : 1 h 35 min
Bit rate                       : 890 kb/s
Nominal bit rate               : 837 kb/s
Width                          : 1 280 pixels
Height                         : 720 pixels
Display aspect ratio           : 16:9
Frame rate mode                : Constant
Frame rate                     : 25.000 FPS
Original frame rate            : 23.976 (24000/1001) FPS
Stream size                    : 609 MiB (83%)
Writing library                : x264

Audio #1
Format                         : AAC
Duration                       : 1 h 35 min
Bit rate                       : 88.8 kb/s
Channel(s)                     : 6 channels
Channel positions              : Front: L C R, Side: L R, LFE
Sampling rate                  : 44.1 kHz
Frame rate                     : 43.066 FPS (1024 SPF)
Stream size                    : 60.7 MiB (8%)
Language                       : Hindi

Audio #2
Format                         : AAC
Duration                       : 1 h 35 min
Bit rate                       : 88.1 kb/s
Channel(s)                     : 6 channels
Channel positions              : Front: L C R, Side: L R, LFE
Sampling rate                  : 44.1 kHz
Frame rate                     : 43.066 FPS (1024 SPF)
Stream size                    : 60.3 MiB (8%)
Language                       : English

Text
Language                       : English
 
 

Post a Comment

0 Comments